CC Demi Lovato - Cool For The Summer (MUCHHD-1080i-DD5.1-AmazonBoy) [CC]

Discussion in 'MUCH HD' started by DETOX, Jan 15, 2016.

  1. DETOX

    DETOX Well-Known Member V . I . P. Uploader

    Joined:
    Feb 20, 2014
    Messages:
    2,788
    Likes Received:
    15,668
    [​IMG]
    Code:
    General
    ID                                       : 1 (0x1)
    Complete name                            : Demi Lovato - Cool For The Summer (MUCHHD-1080i-DD5.1-AmazonBoy).ts
    Format                                   : MPEG-TS
    File size                                : 369 MiB
    Duration                                 : 3mn 39s
    Overall bit rate mode                    : Variable
    Overall bit rate                         : 14.1 Mbps
    Movie name                               : Videoflow
    Law rating                               : 14+
    
    Video
    ID                                       : 3953 (0xF71)
    Menu ID                                  : 1 (0x1)
    Format                                   : MPEG Video
    Format version                           : Version 2
    Format profile                           : [email protected]
    Format settings, BVOP                    : Yes
    Format settings, Matrix                  : Custom
    Format settings, GOP                     : Variable
    Codec ID                                 : 2
    Duration                                 : 3mn 39s
    Bit rate mode                            : Variable
    Bit rate                                 : 13.0 Mbps
    Maximum bit rate                         : 24.0 Mbps
    Width                                    : 1 920 pixels
    Height                                   : 1 080 pixels
    Display aspect ratio                     : 16:9
    Frame rate                               : 29.970 fps
    Color space                              : YUV
    Chroma subsampling                       : 4:2:0
    Bit depth                                : 8 bits
    Compression mode                         : Lossy
    Bits/(Pixel*Frame)                       : 0.209
    Time code of first frame                 : 00:00:00;00
    Time code source                         : Group of pictures header
    Stream size                              : 340 MiB (92%)
    Writing library                          : (dvd5: Mar 19 2015)
    
    Audio
    ID                                       : 3954 (0xF72)
    Menu ID                                  : 1 (0x1)
    Format                                   : AC-3
    Format/Info                              : Audio Coding 3
    Mode extension                           : CM (complete main)
    Format settings, Endianness              : Big
    Codec ID                                 : 129
    Duration                                 : 3mn 39s
    Bit rate mode                            : Constant
    Bit rate                                 : 384 Kbps
    Channel(s)                               : 6 channels
    Channel positions                        : Front: L C R, Side: L R, LFE
    Sampling rate                            : 48.0 KHz
    Bit depth                                : 16 bits
    Compression mode                         : Lossy
    Delay relative to video                  : -17ms
    Stream size                              : 10.0 MiB (3%)
    Language                                 : English
    
    Text #1
    ID                                       : 3953 (0xF71)-CC1
    Menu ID                                  : 1 (0x1)
    Format                                   : EIA-608
    Muxing mode                              : A/53 / DTVCC Transport
    Muxing mode, more info                   : Muxed in Video #1
    Duration                                 : 3mn 39s
    Bit rate mode                            : Constant
    Stream size                              : 0.00 Byte (0%)
    
    Text #2
    ID                                       : 3953 (0xF71)-1
    Menu ID                                  : 1 (0x1)
    Format                                   : EIA-708
    Muxing mode                              : A/53 / DTVCC Transport
    Muxing mode, more info                   : Muxed in Video #1
    Duration                                 : 3mn 39s
    Bit rate mode                            : Constant
    Stream size                              : 0.00 Byte (0%)
    Server: cloud.mail.ru
    Hidden Content:
    You must reply before you can see the hidden data contained here.
     
  2. Loading...


  3. Dreamer

    Dreamer Lana Del Rey ♥ Capper Uploader

    Joined:
    Dec 4, 2014
    Messages:
    2,391
    Likes Received:
    2,404
    Thank you! :D
     
  4. Dfrazzer

    Dfrazzer Super Moderator Staff Member Super Moderator Capper V . I . P. Donor

    Joined:
    Nov 4, 2013
    Messages:
    3,985
    Likes Received:
    8,101
    Thank you.
     
  5. Zeeh

    Zeeh Member

    Joined:
    Mar 20, 2015
    Messages:
    454
    Likes Received:
    9
    Thanks :]
     
  6. golftae

    golftae Active Member

    Joined:
    May 14, 2014
    Messages:
    553
    Likes Received:
    195
    Thank you
     
  7. mg2244

    mg2244 Member

    Joined:
    Aug 12, 2014
    Messages:
    91
    Likes Received:
    4
    Thank you
     
  8. lucky_jess

    lucky_jess Member

    Joined:
    Nov 28, 2015
    Messages:
    345
    Likes Received:
    5
    Thank you very much
     
  9. rhea

    rhea Well-Known Member

    Joined:
    Jan 6, 2014
    Messages:
    5,534
    Likes Received:
    307
    thank you so much! :)
     
  10. Rorschach95

    Rorschach95 Member

    Joined:
    Jun 12, 2016
    Messages:
    131
    Likes Received:
    0
  11. danicoteca

    danicoteca Member

    Joined:
    Sep 10, 2016
    Messages:
    160
    Likes Received:
    17
  12. Lucky

    Lucky Member

    Joined:
    Sep 26, 2016
    Messages:
    253
    Likes Received:
    16
    thanks
     
  13. revilo18

    revilo18 Well-Known Member

    Joined:
    May 26, 2016
    Messages:
    1,479
    Likes Received:
    60
    THANKKK
     
  14. zhxliveing

    zhxliveing Member

    Joined:
    Sep 7, 2016
    Messages:
    283
    Likes Received:
    12
    thank
    thank you
     
  15. pajtas

    pajtas Member

    Joined:
    Feb 15, 2016
    Messages:
    31
    Likes Received:
    1
    thanks