Demi Lovato - Cool For The Summer (M3HD-1080i-DD5.1-AmazonBoy) [CC]

Discussion in 'M3 HD' started by DETOX, Jan 15, 2016.

  1. DETOX

    DETOX Well-Known Member V . I . P. Uploader

    Joined:
    Feb 20, 2014
    Messages:
    2,593
    Likes Received:
    12,174
    [​IMG]
    Code:
    General
    ID                                       : 1 (0x1)
    Complete name                            : Demi Lovato - Cool For The Summer (M3HD-1080i-DD5.1-AmazonBoy).ts
    Format                                   : MPEG-TS
    File size                                : 367 MiB
    Duration                                 : 3mn 39s
    Overall bit rate mode                    : Variable
    Overall bit rate                         : 14.0 Mbps
    Movie name                               : 100  SPUN OUT
    Law rating                               : 14+
    
    Video
    ID                                       : 2113 (0x841)
    Menu ID                                  : 1 (0x1)
    Format                                   : MPEG Video
    Format version                           : Version 2
    Format profile                           : [email protected]
    Format settings, BVOP                    : Yes
    Format settings, Matrix                  : Custom
    Format settings, GOP                     : Variable
    Codec ID                                 : 2
    Duration                                 : 3mn 38s
    Bit rate mode                            : Variable
    Bit rate                                 : 13.0 Mbps
    Maximum bit rate                         : 24.0 Mbps
    Width                                    : 1 920 pixels
    Height                                   : 1 080 pixels
    Display aspect ratio                     : 16:9
    Frame rate                               : 29.970 fps
    Color space                              : YUV
    Chroma subsampling                       : 4:2:0
    Bit depth                                : 8 bits
    Compression mode                         : Lossy
    Bits/(Pixel*Frame)                       : 0.208
    Time code of first frame                 : 00:00:00;00
    Time code source                         : Group of pictures header
    Stream size                              : 338 MiB (92%)
    Writing library                          : (dvd5: Mar 19 2015)
    
    Audio
    ID                                       : 2114 (0x842)
    Menu ID                                  : 1 (0x1)
    Format                                   : AC-3
    Format/Info                              : Audio Coding 3
    Mode extension                           : CM (complete main)
    Format settings, Endianness              : Big
    Codec ID                                 : 129
    Duration                                 : 3mn 38s
    Bit rate mode                            : Constant
    Bit rate                                 : 384 Kbps
    Channel(s)                               : 6 channels
    Channel positions                        : Front: L C R, Side: L R, LFE
    Sampling rate                            : 48.0 KHz
    Bit depth                                : 16 bits
    Compression mode                         : Lossy
    Delay relative to video                  : -1ms
    Stream size                              : 10.0 MiB (3%)
    Language                                 : English
    
    Text #1
    ID                                       : 2113 (0x841)-CC1
    Menu ID                                  : 1 (0x1)
    Format                                   : EIA-608
    Muxing mode                              : A/53 / DTVCC Transport
    Muxing mode, more info                   : Muxed in Video #1
    Duration                                 : 3mn 38s
    Bit rate mode                            : Constant
    Stream size                              : 0.00 Byte (0%)
    
    Text #2
    ID                                       : 2113 (0x841)-1
    Menu ID                                  : 1 (0x1)
    Format                                   : EIA-708
    Muxing mode                              : A/53 / DTVCC Transport
    Muxing mode, more info                   : Muxed in Video #1
    Duration                                 : 3mn 38s
    Bit rate mode                            : Constant
    Stream size                              : 0.00 Byte (0%)
    Server: cloud.mail.ru
    Hidden Content:
    You must reply before you can see the hidden data contained here.
     
    rhea, Dfrazzer and Dreamer like this.
  2. Dreamer

    Dreamer ♫ It's Britney Bitch ♫ Capper Uploader

    Joined:
    Dec 4, 2014
    Messages:
    2,136
    Likes Received:
    1,797
    Thank you! :D
     
  3. Dfrazzer

    Dfrazzer Super Moderator Staff Member Super Moderator Capper V . I . P. Donor

    Joined:
    Nov 4, 2013
    Messages:
    3,825
    Likes Received:
    7,504
    Thank you.
     
  4. yukides

    yukides Active Member

    Joined:
    Nov 15, 2013
    Messages:
    160
    Likes Received:
    78
    Thank you
     
  5. Trop1cal

    Trop1cal Member

    Joined:
    Feb 5, 2015
    Messages:
    495
    Likes Received:
    10
    Thank you very much.
     
  6. Zeeh

    Zeeh Member

    Joined:
    Mar 20, 2015
    Messages:
    327
    Likes Received:
    4
    Thanks
     
  7. rhea

    rhea Well-Known Member

    Joined:
    Jan 6, 2014
    Messages:
    5,193
    Likes Received:
    250
    thank you so much :)
     
  8. Bouncer

    Bouncer Member

    Joined:
    Jan 5, 2016
    Messages:
    372
    Likes Received:
    7
    tks tks
     
  9. sasankrules

    sasankrules Member

    Joined:
    Sep 5, 2016
    Messages:
    91
    Likes Received:
    1
  10. nvid

    nvid New Member

    Joined:
    Sep 5, 2016
    Messages:
    27
    Likes Received:
    0
    Thanks
     
  11. Ponius

    Ponius Member

    Joined:
    Dec 19, 2016
    Messages:
    272
    Likes Received:
    2
    Danke
     
  12. zepastel

    zepastel New Member

    Joined:
    May 16, 2015
    Messages:
    15
    Likes Received:
    0
    Obrigado