Demi Lovato Backstage video from the Jonas Brothers Burnin Up Tour 2008 vob

Discussion in 'SD Live Performances' started by Dfrazzer, Mar 29, 2014.

  1. Dfrazzer

    Dfrazzer Super Moderator Staff Member Super Moderator Capper V . I . P. Donor

    Joined:
    Nov 4, 2013
    Messages:
    5,740
    Likes Received:
    13,982
    [​IMG] [​IMG] [​IMG] [​IMG] [​IMG] [​IMG] [​IMG] [​IMG] [​IMG] [​IMG] [​IMG] [​IMG] [​IMG] [​IMG] [​IMG] [​IMG] [​IMG] [​IMG]

    Code:
    General
    Complete name : C:\Users\Darren\Desktop\DLBVJBBUT08.VOB
    Format : MPEG-PS
    File size : 313 MiB
    Duration : 5mn 58s
    Overall bit rate : 7 332 Kbps
    
    Video
    ID : 224 (0xE0)
    Format : MPEG Video
    Format version : Version 2
    Format profile : Main@Main
    Format settings, BVOP : Yes
    Format settings, Matrix : Default
    Format settings, GOP : M=3, N=13
    Duration : 5mn 58s
    Bit rate : 7 000 Kbps
    Width : 720 pixels
    Height : 480 pixels
    Display aspect ratio : 4:3
    Frame rate : 29.970 fps
    Standard : NTSC
    Color space : YUV
    Chroma subsampling : 4:2:0
    Bit depth : 8 bits
    Scan type : Interlaced
    Scan order : Top Field First
    Compression mode : Lossy
    Bits/(Pixel*Frame) : 0.676
    Time code of first frame : 00:00:14:00
    Time code source : Group of pictures header
    Stream size : 299 MiB (95%)
    Color primaries : BT.601 NTSC
    Transfer characteristics : BT.601
    Matrix coefficients : BT.601
    
    Audio
    ID : 189 (0xBD)-128 (0x80)
    Format : AC-3
    Format/Info : Audio Coding 3
    Mode extension : CM (complete main)
    Format settings, Endianness : Big
    Muxing mode : DVD-Video
    Duration : 5mn 58s
    Bit rate mode : Constant
    Bit rate : 192 Kbps
    Channel(s) : 2 channels
    Channel positions : Front: L R
    Sampling rate : 48.0 KHz
    Bit depth : 16 bits
    Compression mode : Lossy
    Stream size : 8.20 MiB (3%)
    
    Hidden Content:
    You must reply before you can see the hidden data contained here.
     
    Last edited: May 18, 2014
    joelh20101, pomodoro_2013 and Paula like this.
  2. Loading...


  3. Paula

    Paula Active Member

    Joined:
    Oct 30, 2013
    Messages:
    162
    Likes Received:
    25
    THX, THX, THX ; )
     
  4. OlivierLovatic

    OlivierLovatic Well-Known Member Capper

    Joined:
    Oct 23, 2013
    Messages:
    378
    Likes Received:
    303
    thank you so much ! :)
     
  5. Sorps

    Sorps New Member

    Joined:
    Feb 3, 2014
    Messages:
    17
    Likes Received:
    0
    thanks
     
  6. pomodoro_2013

    pomodoro_2013 Member

    Joined:
    Nov 17, 2013
    Messages:
    415
    Likes Received:
    12
    thank you
     
  7. joelh20101

    joelh20101 Well-Known Member

    Joined:
    Nov 4, 2013
    Messages:
    1,522
    Likes Received:
    162
  8. Snorom6

    Snorom6 Well-Known Member V . I . P. Uploader

    Joined:
    Dec 17, 2015
    Messages:
    4,246
    Likes Received:
    6,578
  9. Ramon

    Ramon Member

    Joined:
    Feb 26, 2018
    Messages:
    508
    Likes Received:
    15
    obrigado