Debbie Gibson - Lost in your eyes (1988) (1080p Upscale)

Discussion in 'UPSCALED' started by sori, Feb 23, 2021.

  1. sori

    sori Active Member

    Joined:
    Oct 22, 2013
    Messages:
    204
    Likes Received:
    28
    [​IMG]
    [​IMG] [​IMG]

    Complete name : Debbie Gibson - Lost In Your Eyes-1080p-x264-Sori.mp4
    Format : MPEG-4
    Format profile : Base Media
    Codec ID : isom (isom/avc1)
    File size : 1.00 GiB
    Duration : 3 min 50 s
    Overall bit rate : 37.3 Mb/s
    Encoded date : UTC 2021-02-23 07:28:59
    Tagged date : UTC 2021-02-23 07:28:59

    Video
    ID : 1
    Format : AVC
    Format/Info : Advanced Video Codec
    Format profile : High@L4.1
    Format settings : CABAC / 5 Ref Frames
    Format settings, CABAC : Yes
    Format settings, Reference fra : 5 frames
    Codec ID : avc1
    Codec ID/Info : Advanced Video Coding
    Duration : 3 min 50 s
    Bit rate : 37.0 Mb/s
    Maximum bit rate : 53.6 Mb/s
    Width : 1 440 pixels
    Height : 1 080 pixels
    Display aspect ratio : 4:3
    Frame rate mode : Constant
    Frame rate : 24.000 FPS
    Color space : YUV
    Chroma subsampling : 4:2:0
    Bit depth : 8 bits
    Scan type : Progressive
    Bits/(Pixel*Frame) : 0.991
    Stream size : 1 015 MiB (99%)
    Writing library : x264 core 157 r2969 d4099dd
    Encoding settings : cabac=1 / ref=5 / deblock=1:-3:-3 / analyse=0x3:0x133 / me=umh / subme=10 / psy=1 / psy_rd=1.00:0.00 / mixed_ref=1 / me_range=24 / chroma_me=1 / trellis=2 / 8x8dct=1 / cqm=0 / deadzone=21,11 / fast_pskip=1 / chroma_qp_offset=-2 / threads=6 / lookahead_threads=1 / sliced_threads=0 / nr=0 / decimate=1 / interlaced=0 / bluray_compat=0 / constrained_intra=0 / bframes=8 / b_pyramid=2 / b_adapt=2 / b_bias=0 / direct=3 / weightb=1 / open_gop=0 / weightp=2 / keyint=240 / keyint_min=23 / scenecut=40 / intra_refresh=0 / rc_lookahead=60 / rc=crf / mbtree=1 / crf=16.0 / qcomp=0.60 / qpmin=0 / qpmax=51 / qpstep=4 / vbv_maxrate=62500 / vbv_bufsize=78125 / crf_max=0.0 / nal_hrd=none / filler=0 / ip_ratio=1.40 / aq=1:1.00
    Encoded date : UTC 2021-02-23 07:28:59
    Tagged date : UTC 2021-02-23 07:29:48
    Codec configuration box : avcC

    Audio
    ID : 2
    Format : AC-3
    Format/Info : Audio Coding 3
    Commercial name : Dolby Digital
    Codec ID : ac-3
    Duration : 3 min 50 s
    Bit rate mode : Constant
    Bit rate : 384 kb/s
    Maximum bit rate : 401 kb/s
    Channel(s) : 2 channels
    Channel layout : L R
    Sampling rate : 44.1 kHz
    Frame rate : 28.711 FPS (1536 SPF)
    Compression mode : Lossy
    Stream size : 10.6 MiB (1%)

    Great song, but available NO TRUE HD COPY :'( Hope someone uploads a better version.

    Download:
    Hidden Content:
    You must reply before you can see the hidden data contained here.
     
    Fad and marco25 like this.
  2. xxx81

    xxx81 Well-Known Member

    Joined:
    May 13, 2018
    Messages:
    1,338
    Likes Received:
    27
    thanks
     
  3. orionN

    orionN Well-Known Member

    Joined:
    Jan 26, 2018
    Messages:
    1,816
    Likes Received:
    126
    thank you
     
  4. Ziggy

    Ziggy Member

    Joined:
    Dec 13, 2020
    Messages:
    55
    Likes Received:
    3
    Thanks!
     
  5. babyr1427

    babyr1427 Member

    Joined:
    Nov 27, 2020
    Messages:
    394
    Likes Received:
    7
    Thanks
     
  6. nb5biejw

    nb5biejw New Member

    Joined:
    Jan 22, 2021
    Messages:
    20
    Likes Received:
    0
  7. Victor Whispers 02

    Victor Whispers 02 Member

    Joined:
    Apr 27, 2020
    Messages:
    204
    Likes Received:
    13
  8. vinyferraz

    vinyferraz Member

    Joined:
    Jul 17, 2020
    Messages:
    133
    Likes Received:
    2
  9. romeeek

    romeeek Active Member

    Joined:
    Jul 25, 2016
    Messages:
    750
    Likes Received:
    29