David Guetta ft. Nicki Minaj - Hey Mama (Mtv.Live.HD.HD.1080i.DD5.1).-Crusha

Discussion in 'MTV LIVE HD' started by Crusha, Jun 1, 2015.

  1. Crusha

    Crusha Well-Known Member Capper V . I . P.

    Joined:
    Oct 15, 2014
    Messages:
    2,359
    Likes Received:
    2,860
    [​IMG]

    General
    ID : 1 (0x1)
    Complete name : David Guetta ft. Nicki Minaj - Hey Mama (Mtv.Live.HD.HD.1080i.DD5.1).-Crusha.ts
    Format : MPEG-TS
    File size : 83.4 MiB
    Duration : 3mn 15s
    Overall bit rate mode : Variable
    Overall bit rate : 3 569 Kbps

    Video
    ID : 2755 (0xAC3)
    Menu ID : 855 (0x357)
    Format : AVC
    Format/Info : Advanced Video Codec
    Format profile : High@L4.0
    Format settings, CABAC : Yes
    Format settings, ReFrames : 4 frames
    Codec ID : 27
    Duration : 3mn 15s
    Bit rate : 3 005 Kbps
    Width : 1 920 pixels
    Height : 1 080 pixels
    Display aspect ratio : 16:9
    Frame rate : 29.970 fps
    Standard : Component
    Color space : YUV
    Chroma subsampling : 4:2:0
    Bit depth : 8 bits
    Scan type : MBAFF
    Scan order : Top Field First
    Bits/(Pixel*Frame) : 0.048
    Stream size : 70.2 MiB (84%)
    Color primaries : BT.709
    Transfer characteristics : BT.709
    Matrix coefficients : BT.709
    Color range : Limited

    Audio
    ID : 3755 (0xEAB)
    Menu ID : 855 (0x357)
    Format : AC-3
    Format/Info : Audio Coding 3
    Mode extension : CM (complete main)
    Format settings, Endianness : Big
    Codec ID : 6
    Duration : 3mn 15s
    Bit rate mode : Constant
    Bit rate : 384 Kbps
    Channel(s) : 6 channels
    Channel positions : Front: L C R, Side: L R, LFE
    Sampling rate : 48.0 KHz
    Bit depth : 16 bits
    Compression mode : Lossy
    Stream size : 8.97 MiB (11%)
    Language : English

    Hidden Content:
    You must either reply or click 'Like' to see the hidden information contained here.
    Password: crusha

    Cap by Me :)
     
  2. Loading...


  3. Joseph

    Joseph Active Member

    Joined:
    Dec 10, 2013
    Messages:
    753
    Likes Received:
    180
    thank you!
     
  4. Crusha

    Crusha Well-Known Member Capper V . I . P.

    Joined:
    Oct 15, 2014
    Messages:
    2,359
    Likes Received:
    2,860
    you are welcome :)
     
  5. 777josem

    777josem ProRes 1080p LPCM

    Joined:
    Sep 1, 2014
    Messages:
    3,770
    Likes Received:
    3,387
    Thank you
     
  6. SriMalchik

    SriMalchik Member

    Joined:
    Oct 6, 2015
    Messages:
    37
    Likes Received:
    0
    thanks dude
     
  7. Pavulon

    Pavulon Well-Known Member Donor

    Joined:
    Mar 22, 2016
    Messages:
    4,476
    Likes Received:
    921
    thanks
     
  8. miyara

    miyara My reputation died in this forum V . I . P. Uploader

    Joined:
    Feb 21, 2016
    Messages:
    1,034
    Likes Received:
    3,586
    Than u so much.
     
  9. VIVAfan1991

    VIVAfan1991 Active Member

    Joined:
    Jan 11, 2018
    Messages:
    608
    Likes Received:
    50
  10. issamtohme

    issamtohme Active Member

    Joined:
    Oct 14, 2015
    Messages:
    498
    Likes Received:
    206
    thanks