David Guetta feat. Rihanna - Who's That Chick (TRACEURBANHD-1080i-MPA2.0-Djodjara)-HDMania

Discussion in 'TRACE URBAN HD' started by Djodjara, Dec 15, 2014.

  1. Djodjara

    Djodjara Gwen Fan Capper

    Joined:
    Sep 6, 2014
    Messages:
    782
    Likes Received:
    1,411
    David Guetta feat. Rihanna - Who's That Chick (TRACE HD-1080i-Djodjara)-HDMania

    [​IMG]
    [​IMG]

    General:
    ID : 1 (0x1)
    Format : MPEG-TS
    File size : 192 MiB
    Duration : 3mn 14s
    Overall bit rate mode : Variable
    Overall bit rate : 8 244 Kbps

    Video:
    ID : 1353 (0x549)
    Menu ID : 1 (0x1)
    Format : AVC
    Format/Info : Advanced Video Codec
    Format profile : [email protected]
    Format settings, CABAC : Yes
    Format settings, ReFrames : 4 frames
    Codec ID : 27
    Duration : 3mn 14s
    Bit rate : 7 642 Kbps
    Width : 1 920 pixels
    Height : 1 080 pixels
    Display aspect ratio : 16:9
    Frame rate : 25.000 fps
    Standard : Component
    Color space : YUV
    Chroma subsampling : 4:2:0
    Bit depth : 8 bits
    Scan type : Interlaced
    Bits/(Pixel*Frame) : 0.147
    Stream size : 178 MiB (93%)
    Color primaries : BT.709
    Transfer characteristics : BT.709
    Matrix coefficients : BT.709

    Audio:
    ID : 3374 (0xD2E)
    Menu ID : 1 (0x1)
    Format : MPEG Audio
    Format version : Version 1
    Format profile : Layer 2
    Codec ID : 3
    Duration : 3mn 14s
    Bit rate mode : Constant
    Bit rate : 192 Kbps
    Channel count : 2 channels
    Sampling rate : 48.0 KHz
    Compression mode : Lossy
    Stream size : 4.46 MiB (2%)
    Language : English

    Hidden Content:
    You must reply before you can see the hidden data contained here.
     
    lyana94, ImLoser, taojia and 7 others like this.
  2. Loading...


  3. withcap

    withcap Well-Known Member

    Joined:
    Oct 29, 2013
    Messages:
    1,707
    Likes Received:
    98
    Thank you!
     
  4. franklele

    franklele Well-Known Member

    Joined:
    Nov 11, 2013
    Messages:
    2,103
    Likes Received:
    114
    thank you
     
  5. Dreamer

    Dreamer Lana Del Rey ♥ Halsey Capper V . I . P. Uploader

    Joined:
    Dec 4, 2014
    Messages:
    2,802
    Likes Received:
    3,905
    Thanks
     
  6. multimediafm

    multimediafm Well-Known Member Donor

    Joined:
    Mar 27, 2014
    Messages:
    9,948
    Likes Received:
    576
  7. rhea

    rhea Well-Known Member

    Joined:
    Jan 6, 2014
    Messages:
    6,596
    Likes Received:
    667
    thank you so much :)
     
  8. HumblePie

    HumblePie Active Member

    Joined:
    Sep 11, 2014
    Messages:
    119
    Likes Received:
    260
  9. tf135

    tf135 Well-Known Member

    Joined:
    Nov 14, 2014
    Messages:
    2,239
    Likes Received:
    126
  10. Crusha

    Crusha Well-Known Member Capper V . I . P.

    Joined:
    Oct 15, 2014
    Messages:
    2,355
    Likes Received:
    2,521
    Thanks!!! :)
     
  11. Grailen

    Grailen Well-Known Member

    Joined:
    Oct 8, 2013
    Messages:
    596
    Likes Received:
    754
    thanks
     
  12. guillaume

    guillaume Active Member

    Joined:
    Jan 4, 2014
    Messages:
    248
    Likes Received:
    25
    :)
     
  13. ronald

    ronald Member

    Joined:
    Dec 27, 2013
    Messages:
    57
    Likes Received:
    0
    HD thanks!!!
     
  14. ronald

    ronald Member

    Joined:
    Dec 27, 2013
    Messages:
    57
    Likes Received:
    0
    A long time ago I did an upscale of the clean version (no tag), I don't remember from where I got the PMC-MOV.480p and I upscaled it to 1080p the quality it's a bit better than the one you posted it, and I got a very similar original fullHD but, it was too big, so I re-encoded and it's lost quality but it's acceptable, at that time I was more interested in saving espace than quality, now I regret it =(, hope I can find the source again and do a proper upscale, I'll send you an inbox with my version, I'm uploading it right now
     
  15. ytyh

    ytyh Member

    Joined:
    Mar 30, 2014
    Messages:
    432
    Likes Received:
    4
    Thanks
     
  16. marlyvasconceles

    marlyvasconceles Member

    Joined:
    Sep 7, 2014
    Messages:
    243
    Likes Received:
    2
  17. klaus

    klaus Member

    Joined:
    Sep 11, 2014
    Messages:
    939
    Likes Received:
    18
    thanks
     
  18. adam dark

    adam dark Video Music Lover <3 V . I . P.

    Joined:
    Dec 5, 2013
    Messages:
    2,601
    Likes Received:
    4,768
    I have this version, I don't know if this it's useful for you upscaled? if its ok, just let me know and I will upload ASAP!

    [​IMG]
     
  19. crash22

    crash22 Member

    Joined:
    Nov 3, 2013
    Messages:
    228
    Likes Received:
    3
    thanks
     
  20. xaro

    xaro Member

    Joined:
    Jun 7, 2014
    Messages:
    183
    Likes Received:
    3
  21. Binh

    Binh Member

    Joined:
    Nov 18, 2013
    Messages:
    86
    Likes Received:
    1
    thank you