David Guetta Feat. Nicki Minaj, Afrojack & Bebe Rexha - Hey Mama (M3HD-1080i-DD5.1-AmazonBoy) [CC]

Discussion in 'M3 HD' started by HDTiVi, Jul 10, 2015.

  1. HDTiVi

    HDTiVi Active Member

    Joined:
    Jun 16, 2014
    Messages:
    37
    Likes Received:
    253
    David Guetta Feat. Nicki Minaj, Afrojack & Bebe Rexha - Hey Mama (M3HD-1080i-DD5.1-AmazonBoy)

    [​IMG]

    [​IMG]

    General
    ID : 1 (0x1)
    Complete name : David Guetta Feat. Nicki Minaj, Afrojack & Bebe Rexha - Hey Mama (M3HD-1080i-DD5.1-AmazonBoy).ts
    Format : MPEG-TS
    File size : 337 MiB
    Duration : 3mn 15s
    Overall bit rate mode : Variable
    Overall bit rate : 14.4 Mbps
    Movie name : #107 CORNER GAS
    Law rating : 14+


    Video
    ID : 1841 (0x731)
    Menu ID : 1 (0x1)
    Format : MPEG Video
    Format version : Version 2
    Format profile : [email protected]
    Format settings, BVOP : Yes
    Format settings, Matrix : Custom
    Format settings, GOP : M=3, N=30
    Format settings, picture structure : Frame
    Codec ID : 2
    Duration : 3mn 15s
    Bit rate mode : Variable
    Bit rate : 13.3 Mbps
    Maximum bit rate : 24.0 Mbps
    Width : 1 920 pixels
    Height : 1 080 pixels
    Display aspect ratio : 16:9
    Frame rate : 29.970 fps
    Color space : YUV
    Chroma subsampling : 4:2:0
    Bit depth : 8 bits
    Scan type : Interlaced
    Scan order : Top Field First
    Compression mode : Lossy
    Bits/(Pixel*Frame) : 0.214
    Time code of first frame : 00:00:00;00
    Time code source : Group of pictures header
    GOP, Open/Closed : Open
    GOP, Open/Closed of first frame : Closed
    Stream size : 310 MiB (92%)
    Writing library : (dvd5: Mar 19 2015)


    Audio
    ID : 1842 (0x732)
    Menu ID : 1 (0x1)
    Format : AC-3
    Format/Info : Audio Coding 3
    Mode extension : CM (complete main)
    Format settings, Endianness : Big
    Codec ID : 129
    Duration : 3mn 15s
    Bit rate mode : Constant
    Bit rate : 384 Kbps
    Channel(s) : 6 channels
    Channel positions : Front: L C R, Side: L R, LFE
    Sampling rate : 48.0 KHz
    Bit depth : 16 bits
    Compression mode : Lossy
    Stream size : 8.95 MiB (3%)
    Language : English


    Text #1
    ID : 1841 (0x731)-CC1
    Menu ID : 1 (0x1)
    Format : EIA-608
    Muxing mode : A/53 / DTVCC Transport
    Muxing mode, more info : Muxed in Video #1
    Duration : 3mn 15s
    Bit rate mode : Constant
    Stream size : 0.00 Byte (0%)


    Text #2
    ID : 1841 (0x731)-1
    Menu ID : 1 (0x1)
    Format : EIA-708
    Muxing mode : A/53 / DTVCC Transport
    Muxing mode, more info : Muxed in Video #1
    Duration : 3mn 15s
    Bit rate mode : Constant
    Stream size : 0.00 Byte (0%)

    Hidden Content:
    You must either reply or click 'Like' to see the hidden information contained here.
     
    Last edited: Nov 11, 2015
    Jakunek123, ifuseekme, cero and 5 others like this.
  2. rhea

    rhea Well-Known Member

    Joined:
    Jan 6, 2014
    Messages:
    5,300
    Likes Received:
    253
    thanks a lot
     
  3. Dave

    Dave Well-Known Member

    Joined:
    Jun 2, 2015
    Messages:
    542
    Likes Received:
    270
    Thank u
     
  4. Regis

    Regis Active Member

    Joined:
    Jul 14, 2015
    Messages:
    997
    Likes Received:
    25
    thank you so much!:D
     
  5. GSRemast21

    GSRemast21 Well-Known Member

    Joined:
    Dec 6, 2014
    Messages:
    451
    Likes Received:
    359
  6. jayananda

    jayananda Member

    Joined:
    Jan 14, 2015
    Messages:
    248
    Likes Received:
    5
    Thank You
     
  7. Mihaly Halasz

    Mihaly Halasz Member

    Joined:
    Nov 23, 2013
    Messages:
    43
    Likes Received:
    0
    thank you
     
  8. SriMalchik

    SriMalchik Member

    Joined:
    Oct 6, 2015
    Messages:
    37
    Likes Received:
    0
    Thanks dude
     
  9. furkan

    furkan Member

    Joined:
    Oct 9, 2015
    Messages:
    194
    Likes Received:
    3
    thnks youuu
     
  10. janito33

    janito33 Member

    Joined:
    Dec 10, 2014
    Messages:
    134
    Likes Received:
    1
    gracias por el video
     
  11. klaus

    klaus Member

    Joined:
    Sep 11, 2014
    Messages:
    782
    Likes Received:
    9
    thank you
     
  12. Praveen867

    Praveen867 Member

    Joined:
    Nov 14, 2016
    Messages:
    482
    Likes Received:
    2
    Gone.Girl.
     
  13. lhm5

    lhm5 Member

    Joined:
    Jan 27, 2017
    Messages:
    45
    Likes Received:
    0
    Thanks
     
  14. Cdidi

    Cdidi Riri, Taylor & Madonna Fan V . I . P.

    Joined:
    Feb 21, 2016
    Messages:
    714
    Likes Received:
    964
    Thanks