Davichi - Don't Say Goodbye (GOMTV 1080p)

Discussion in 'GOM TV' started by Anggi Edwarsa, Sep 22, 2015.

  1. Anggi Edwarsa

    Anggi Edwarsa Active Member

    Joined:
    May 3, 2014
    Messages:
    383
    Likes Received:
    129
    [​IMG]
    General
    Complete name : D:\Video\Davichi - Don't Say Goodbye.avi
    Format : AVI
    Format/Info : Audio Video Interleave
    File size : 495 MiB
    Duration : 6mn 40s
    Overall bit rate mode : Variable
    Overall bit rate : 10.4 Mbps
    Writing application : GOM ENCODER (GAviWriter 1.0)

    Video
    ID : 0
    Format : AVC
    Format/Info : Advanced Video Codec
    Format profile : [email protected]
    Format settings, CABAC : Yes
    Format settings, ReFrames : 1 frame
    Codec ID : H264
    Duration : 6mn 40s
    Bit rate : 10 000 Kbps
    Width : 1 920 pixels
    Height : 1 080 pixels
    Display aspect ratio : 16:9
    Frame rate : 23.976 fps
    Color space : YUV
    Chroma subsampling : 4:2:0
    Bit depth : 8 bits
    Scan type : Progressive
    Bits/(Pixel*Frame) : 0.201
    Stream size : 480 MiB (97%)
    Writing library : x264 core 152932692
    Encoding settings : cabac=1 / ref=1 / deblock=1:0:0 / analyse=0x1:0x111 / me=hex / subme=5 / brdo=0 / mixed_ref=0 / me_range=16 / chroma_me=1 / trellis=0 / 8x8dct=0 / cqm=0 / deadzone=21,11 / chroma_qp_offset=0 / slices=4 / nr=0 / decimate=1 / mbaff=0 / bframes=0 / keyint=239 / keyint_min=1 / scenecut=40 / rc=abr / bitrate=10000 / ratetol=1.0 / rceq='blurCplx^(1-qComp)' / qcomp=0.50 / qpmin=10 / qpmax=40 / qpstep=4 / ip_ratio=1.40

    Audio
    ID : 1
    Format : MPEG Audio
    Format version : Version 1
    Format profile : Layer 3
    Mode : Joint stereo
    Codec ID : 55
    Codec ID/Hint : MP3
    Duration : 6mn 40s
    Bit rate mode : Variable
    Bit rate : 288 Kbps
    Channel(s) : 2 channels
    Sampling rate : 44.1 KHz
    Compression mode : Lossy
    Stream size : 13.7 MiB (3%)
    Alignment : Aligned on interleaves
    Interleave, duration : 26 ms (0.63 video frame)
    Interleave, preload duration : 2 ms

    Hidden Content:
    You must reply before you can see the hidden data contained here.
     
  2. shuichi

    shuichi New Member

    Joined:
    Sep 20, 2016
    Messages:
    2
    Likes Received:
    0
    thanks for share this old MV