Davichi - A Sad Love Song (Mnet Japan HD)

Discussion in 'MNET' started by yukides, Apr 22, 2014.

  1. yukides

    yukides Active Member

    Joined:
    Nov 15, 2013
    Messages:
    160
    Likes Received:
    74
    Davichi - A Sad Love Song (Mnet Japan HD)

    [​IMG]
    Code:
    Format                                   : MPEG-TS
    File size                                : 125 MiB
    Duration                                 : 3mn 38s
    Overall bit rate mode                    : Variable
    Overall bit rate                         : 4 796 Kbps
    
    Video
    ID                                       : 4100 (0x1004)
    Menu ID                                  : 129 (0x81)
    Format                                   : AVC
    Format/Info                              : Advanced Video Codec
    Format profile                           : [email protected]
    Format settings, CABAC                   : Yes
    Format settings, ReFrames                : 4 frames
    Codec ID                                 : 27
    Duration                                 : 3mn 38s
    Bit rate mode                            : Variable
    Bit rate                                 : 4 413 Kbps
    Maximum bit rate                         : 20.0 Mbps
    Width                                    : 1 440 pixels
    Height                                   : 1 080 pixels
    Display aspect ratio                     : 16:9
    Frame rate                               : 29.970 fps
    Standard                                 : Component
    Color space                              : YUV
    Chroma subsampling                       : 4:2:0
    Bit depth                                : 8 bits
    Scan type                                : Interlaced
    Scan order                               : Top Field First
    Bits/(Pixel*Frame)                       : 0.095
    Stream size                              : 115 MiB (92%)
    Color primaries                          : BT.709
    Transfer characteristics                 : BT.709
    Matrix coefficients                      : BT.709
    
    Audio
    ID                                       : 4164 (0x1044)
    Menu ID                                  : 129 (0x81)
    Format                                   : AAC
    Format/Info                              : Advanced Audio Codec
    Format version                           : Version 2
    Format profile                           : LC
    Muxing mode                              : ADTS
    Codec ID                                 : 15
    Duration                                 : 3mn 38s
    Bit rate mode                            : Variable
    Bit rate                                 : 144 Kbps
    Channel(s)                               : 2 channels
    Channel positions                        : Front: L R
    Sampling rate                            : 48.0 KHz
    Compression mode                         : Lossy
    Delay relative to video                  : -538ms
    Stream size                              : 3.76 MiB (3%)
    Link
    Hidden Content:
    You must reply before you can see the hidden data contained here.
     
    rhea likes this.
  2. Loading...


  3. rhea

    rhea Well-Known Member

    Joined:
    Jan 6, 2014
    Messages:
    5,193
    Likes Received:
    250
    thanks
     
  4. misscoak

    misscoak Member

    Joined:
    Dec 22, 2016
    Messages:
    317
    Likes Received:
    0
    thanks