Daughtry - Waiting For Superman (M3HD-1080i-DD5.1-AmazonBoy) [CC]

Discussion in 'M3 HD' started by rgf72k, Nov 23, 2013.

  1. rgf72k

    rgf72k Founder Staff Member AdMiN Capper Uploader

    Joined:
    Oct 1, 2013
    Messages:
    1,080
    Likes Received:
    16,244
    [​IMG]

    Code:
    General
    ID                                      : 1 (0x1)
    Complete name                            : Daughtry - Waiting For Superman (M3HD-!080i-AmazonBoy).ts
    Format                                  : MPEG-TS
    File size                                : 461 MiB
    Duration                                : 4mn 29s
    Overall bit rate mode                    : Variable
    Overall bit rate                        : 14.3 Mbps
    
    Video
    ID                                      : 769 (0x301)
    Menu ID                                  : 1 (0x1)
    Format                                  : MPEG Video
    Format version                          : Version 2
    Format profile                          : [email protected]
    Format settings, BVOP                    : Yes
    Format settings, Matrix                  : Custom
    Format settings, GOP                    : Variable
    Codec ID                                : 2
    Duration                                : 4mn 29s
    Bit rate mode                            : Variable
    Bit rate                                : 13.2 Mbps
    Maximum bit rate                        : 24.0 Mbps
    Width                                    : 1 920 pixels
    Height                                  : 1 080 pixels
    Display aspect ratio                    : 16:9
    Frame rate                              : 29.970 fps
    Color space                              : YUV
    Chroma subsampling                      : 4:2:0
    Bit depth                                : 8 bits
    Compression mode                        : Lossy
    Bits/(Pixel*Frame)                      : 0.213
    Time code of first frame                : 00:00:00;00
    Time code source                        : Group of pictures header
    Stream size                              : 425 MiB (92%)
    Writing library                          : (c) 1998-2012 Womble Multimedia, Inc. / MPEG Video Wizard DVD 5.0.1.100 (03/2011) / Sep 22 2012
    
    Audio
    ID                                      : 770 (0x302)
    Menu ID                                  : 1 (0x1)
    Format                                  : AC-3
    Format/Info                              : Audio Coding 3
    Mode extension                          : CM (complete main)
    Format settings, Endianness              : Big
    Codec ID                                : 129
    Duration                                : 4mn 29s
    Bit rate mode                            : Constant
    Bit rate                                : 384 Kbps
    Channel(s)                              : 6 channels
    Channel positions                        : Front: L C R, Side: L R, LFE
    Sampling rate                            : 48.0 KHz
    Bit depth                                : 16 bits
    Compression mode                        : Lossy
    Stream size                              : 12.3 MiB (3%)
    Language                                : English
    
    Text #1
    ID                                      : 769 (0x301)-CC1
    Menu ID                                  : 1 (0x1)
    Format                                  : EIA-608
    Muxing mode                              : A/53 / DTVCC Transport
    Muxing mode, more info                  : Muxed in Video #1
    Duration                                : 4mn 29s
    Bit rate mode                            : Constant
    Stream size                              : 0.00 Byte (0%)
    
    Text #2
    ID                                      : 769 (0x301)-1
    Menu ID                                  : 1 (0x1)
    Format                                  : EIA-708
    Muxing mode                              : A/53 / DTVCC Transport
    Muxing mode, more info                  : Muxed in Video #1
    Duration                                : 4mn 29s
    Bit rate mode                            : Constant
    Stream size                              : 0.00 Byte (0%)
    


    Download:
    Hidden Content:
    You must either reply or click 'Like' to see the hidden information contained here.



    Password: sharemania.net



    Capper: AmazonBoy
     
    rocksaid, Attention, Emazing and 5 others like this.
  2. Chayan123

    Chayan123 Member

    Joined:
    Feb 13, 2014
    Messages:
    52
    Likes Received:
    0
  3. Hank

    Hank Member

    Joined:
    Nov 15, 2014
    Messages:
    246
    Likes Received:
    15
    The link is dead. Could anyone reupload it, please? Thanks in advance!