Danzel - Pump It Up (MTVIdol-1080i-DD2.0)-Olgold

Discussion in 'MTV IDOL' started by Olgold, Aug 27, 2015.

  1. Olgold

    Olgold Well-Known Member Capper

    Joined:
    Aug 19, 2015
    Messages:
    386
    Likes Received:
    1,330
    [​IMG]
    General
    Format : MPEG-TS
    File size : 230 MiB
    Duration : 3mn 43s
    Overall bit rate mode : Variable
    Overall bit rate : 8 531 Kbps

    Video
    Format : AVC
    Format/Info : Advanced Video Codec
    Format profile : [email protected]
    Format settings, CABAC : Yes
    Format settings, ReFrames : 4 frames
    Duration : 3mn 42s
    Bit rate : 7 915 Kbps
    Width : 1 920 pixels
    Height : 1 080 pixels
    Display aspect ratio : 16:9
    Frame rate : 25.000 fps
    Standard : Component
    Color space : YUV
    Chroma subsampling : 4:2:0
    Bit depth : 8 bits
    Scan type : MBAFF
    Scan order : Top Field First
    Bits/(Pixel*Frame) : 0.153
    Stream size : 210 MiB (91%)
    Encryption : Seca Mediaguard 1/2
    Color range : Limited

    Audio
    Format : AC-3
    Format/Info : Audio Coding 3
    Mode extension : CM (complete main)
    Format settings, Endianness : Big
    Duration : 3mn 44s
    Bit rate mode : Constant
    Bit rate : 192 Kbps
    Channel(s) : 2 channels
    Channel positions : Front: L R
    Sampling rate : 48.0 KHz
    Compression mode : Lossy
    Delay relative to video : -1s 370ms
    Stream size : 5.14 MiB (2%)
    Language : French

    Hidden Content:
    You must reply before you can see the hidden data contained here.
     
    rhea, 777josem and CELOBRAZiL like this.
  2. rhea

    rhea Well-Known Member

    Joined:
    Jan 6, 2014
    Messages:
    5,403
    Likes Received:
    262
    thank you so much
     
  3. Dreamer

    Dreamer Well-Known Member Capper Uploader

    Joined:
    Dec 4, 2014
    Messages:
    2,292
    Likes Received:
    2,129
    Thank you
     
  4. furkan

    furkan Member

    Joined:
    Oct 9, 2015
    Messages:
    211
    Likes Received:
    3
    thnsk youuuuu
     
  5. nolynexor88

    nolynexor88 Active Member

    Joined:
    Sep 29, 2015
    Messages:
    872
    Likes Received:
    30
     
  6. Snorom6

    Snorom6 Well-Known Member Uploader

    Joined:
    Dec 17, 2015
    Messages:
    4,245
    Likes Received:
    3,777
  7. akon111

    akon111 Member

    Joined:
    Dec 29, 2015
    Messages:
    172
    Likes Received:
    1
    thanks
     
  8. RUS22877773

    RUS22877773 Member

    Joined:
    Jan 7, 2016
    Messages:
    101
    Likes Received:
    1
    thank you
     
  9. Cj2016

    Cj2016 Member

    Joined:
    Jan 15, 2016
    Messages:
    40
    Likes Received:
    1
    thank you
     
  10. TrendMusic

    TrendMusic Well-Known Member

    Joined:
    Oct 7, 2013
    Messages:
    1,021
    Likes Received:
    52
  11. Pavulon

    Pavulon Well-Known Member

    Joined:
    Mar 22, 2016
    Messages:
    1,425
    Likes Received:
    42
    thanks
     
  12. revilo18

    revilo18 Well-Known Member

    Joined:
    May 26, 2016
    Messages:
    1,310
    Likes Received:
    58
    THANKKK
    THANKKK
     
  13. revilo18

    revilo18 Well-Known Member

    Joined:
    May 26, 2016
    Messages:
    1,310
    Likes Received:
    58
    THANKKK