DVD Daniela Romo - Yo no te pido la luna

Discussion in 'SD' started by Rubn4, Jan 10, 2019.

  1. Rubn4

    Rubn4 Active Member

    Joined:
    Oct 30, 2016
    Messages:
    777
    Likes Received:
    240
    [​IMG]


    Code:
    General
    Complete name                  : D:\UltraStar Proyect\Variedad\Yo no te pido la luna.vob
    Format                         : MPEG-PS
    File size                      : 276 MiB
    Duration                       : 3mn 58s
    Overall bit rate               : 9 705 Kbps
    
    Video
    ID                             : 224 (0xE0)
    Format                         : MPEG Video
    Format version                 : Version 2
    Format profile                 : Main@Main
    Format settings, BVOP          : Yes
    Format settings, Matrix        : Default
    Duration                       : 3mn 58s
    Bit rate                       : 8 000 Kbps
    Width                          : 720 pixels
    Height                         : 480 pixels
    Display aspect ratio           : 4:3
    Frame rate                     : 29.970 fps
    Standard                       : NTSC
    Color space                    : YUV
    Chroma subsampling             : 4:2:0
    Bit depth                      : 8 bits
    Scan type                      : Interlaced
    Scan order                     : Top Field First
    Compression mode               : Lossy
    Bits/(Pixel*Frame)             : 0.772
    Stream size                    : 227 MiB (82%)
    
    Audio
    ID                             : 189 (0xBD)-160 (0xA0)
    Format                         : PCM
    Format settings, Endianness    : Big
    Format settings, Sign          : Signed
    Muxing mode                    : DVD-Video
    Duration                       : 3mn 58s
    Bit rate mode                  : Constant
    Bit rate                       : 1 536 Kbps
    Channel(s)                     : 2 channels
    Sampling rate                  : 48.0 KHz
    Bit depth                      : 16 bits
    Stream size                    : 43.7 MiB (16%)

    Hidden Content:
    You must reply before you can see the hidden data contained here.
     
  2. Loading...


  3. logrono

    logrono Well-Known Member V . I . P.

    Joined:
    Mar 8, 2017
    Messages:
    1,851
    Likes Received:
    1,606
    Excelente post hermano, gracias.
     
  4. shing000

    shing000 Well-Known Member

    Joined:
    Mar 13, 2016
    Messages:
    1,698
    Likes Received:
    151
    Gracias
     
  5. johnnyzarate

    johnnyzarate Member

    Joined:
    Dec 26, 2018
    Messages:
    997
    Likes Received:
    22