UHDTV 4K Dan+Shay - Tequila ( Live @ Super Bowl LIV Pregame ) FOX UHD / ilya2129

Discussion in 'HD Live Performances' started by ilya2129, Feb 2, 2020.

  1. ilya2129

    ilya2129 Well-Known Member

    Joined:
    Nov 14, 2019
    Messages:
    27
    Likes Received:
    676
    Dan+Shay - Tequila
    Live @ Super Bowl LIV Pregame
    4K HDR HLG

    [​IMG]

    General
    Unique ID : 109858615087184044391064587891837161737 (0x52A5FFE8B43C2F87906AA751AAFAD109)
    Complete name : D:\Dan+Shay - Tequila ( Live @ Super Bowl LIV Pregame ) FOX UHD.mkv
    Format : Matroska
    Format version : Version 4
    File size : 506 MiB
    Duration : 3 min 22 s
    Overall bit rate : 20.9 Mb/s
    Encoded date : UTC 2020-02-02 21:23:30
    Writing application : mkvmerge v42.0.0 ('Overtime') 64-bit
    Writing library : libebml v1.3.10 + libmatroska v1.5.2

    Video
    ID : 1
    Format : HEVC
    Format/Info : High Efficiency Video Coding
    Format profile : Main 10@L5.1@Main
    Codec ID : V_MPEGH/ISO/HEVC
    Duration : 3 min 22 s
    Bit rate : 20.8 Mb/s
    Width : 3 840 pixels
    Height : 2 160 pixels
    Display aspect ratio : 16:9
    Frame rate mode : Constant
    Frame rate : 59.940 (60000/1001) FPS
    Standard : Component
    Color space : YUV
    Chroma subsampling : 4:2:0 (Type 0)
    Bit depth : 10 bits
    Bits/(Pixel*Frame) : 0.042
    Stream size : 503 MiB (99%)
    Default : Yes
    Forced : No
    Color range : Limited
    Color primaries : BT.709
    Transfer characteristics : BT.709
    Matrix coefficients : BT.709

    Audio
    ID : 2
    Format : AAC LC
    Format/Info : Advanced Audio Codec Low Complexity
    Codec ID : A_AAC-2
    Duration : 3 min 22 s
    Bit rate : 125 kb/s
    Channel(s) : 2 channels
    Channel layout : L R
    Sampling rate : 48.0 kHz
    Frame rate : 46.875 FPS (1024 SPF)
    Compression mode : Lossy
    Delay relative to video : 117 ms
    Stream size : 3.03 MiB (1%)
    Language : English
    Default : Yes
    Forced : No


    Hidden Content:
    You must either reply or click 'Like' to see the hidden information contained here.
     
    Last edited: Feb 2, 2020
    Jens6688, Vinny, CELOBRAZiL and 13 others like this.
  2. azamusic

    azamusic Well-Known Member Capper

    Joined:
    Dec 6, 2013
    Messages:
    1,282
    Likes Received:
    513
    thank you
     
  3. detroit1

    detroit1 Well-Known Member

    Joined:
    Jan 6, 2014
    Messages:
    4,046
    Likes Received:
    658
    THANK YOU
     
  4. mmg1818

    mmg1818 Mabel, Ava Max.

    Joined:
    Dec 24, 2013
    Messages:
    868
    Likes Received:
    2,803
    thanks.

    please no .mkv
    .ts is ok

    other audio or text or subs delete with VideoReDo Pro or TS-Doctor 3.0 or tsMuxeR_2.6.12

    [​IMG]
     
  5. markjackson

    markjackson Well-Known Member

    Joined:
    Jan 8, 2014
    Messages:
    1,420
    Likes Received:
    91
    thank you
     
  6. vjdanilor

    vjdanilor Active Member

    Joined:
    Nov 21, 2014
    Messages:
    934
    Likes Received:
    42
    THANK YOU
     
  7. pickdonna

    pickdonna Active Member

    Joined:
    Dec 13, 2016
    Messages:
    790
    Likes Received:
    42
    thanks
     
  8. asexycowboy

    asexycowboy Well-Known Member

    Joined:
    Apr 6, 2015
    Messages:
    1,249
    Likes Received:
    83
    THANK YOU
     
  9. dgnio

    dgnio Well-Known Member Capper Uploader

    Joined:
    Jul 7, 2014
    Messages:
    2,131
    Likes Received:
    738
    thank you
     
  10. rollergirl1606

    rollergirl1606 Member

    Joined:
    Oct 31, 2014
    Messages:
    593
    Likes Received:
    13
  11. multimediafm

    multimediafm Well-Known Member Archiver Donor

    Joined:
    Mar 27, 2014
    Messages:
    16,497
    Likes Received:
    1,519
  12. CELOBRAZiL

    CELOBRAZiL Well-Known Member Capper V . I . P. Donor

    Joined:
    Oct 2, 2013
    Messages:
    8,277
    Likes Received:
    29,297
    Thank you so much! :)
     
  13. don

    don Active Member

    Joined:
    Nov 28, 2014
    Messages:
    551
    Likes Received:
    25
    thanks