FEED Dan + Shay - Tequila - 2019 Grammy Awards BACKHAUL 1080i HDTV FLAC5.1 H.264-TrollHD

Discussion in 'HD Live Performances' started by CELOBRAZiL, Feb 14, 2019.

  1. CELOBRAZiL

    CELOBRAZiL Well-Known Member Capper V . I . P. Donor

    Joined:
    Oct 2, 2013
    Messages:
    8,276
    Likes Received:
    29,294
    Dan + Shay - Tequila - 2019 Grammy Awards BACKHAUL 1080i HDTV FLAC5.1 H.264-TrollHD

    [​IMG]



    Format : Matroska
    Format version : Version 4
    File size : 844 MiB
    Duration : 3 min 31 s
    Overall bit rate mode : Variable
    Overall bit rate : 33.5 Mb/s
    Encoded date : UTC 2019-02-13 03:52:44
    Writing application : mkvmerge v6.9.1 ('Blue Panther') 32bit built on Apr 18 2014 18:15:44
    Writing library : libebml v1.3.0 + libmatroska v1.4.1

    Video
    ID : 1
    Format : AVC
    Format/Info : Advanced Video Codec
    Format profile : High@L4.1
    Format settings : CABAC / 4 Ref Frames
    Format settings, CABAC : Yes
    Format settings, RefFrames : 4 frames
    Format settings, GOP : M=4, N=32
    Codec ID : V_MPEG4/ISO/AVC
    Duration : 2 h 52 min
    Bit rate : 28.9 Mb/s
    Width : 1 920 pixels
    Height : 1 080 pixels
    Display aspect ratio : 16:9
    Frame rate mode : Variable
    Frame rate : 59.940 FPS
    Original frame rate : 29.970 (30000/1001) FPS
    Color space : YUV
    Chroma subsampling : 4:2:0
    Bit depth : 8 bits
    Scan type : Interlaced
    Scan type, store method : Separated fields
    Scan order : Top Field First
    Bits/(Pixel*Frame) : 0.232
    Stream size : 34.9 GiB
    Default : Yes
    Forced : No
    Color range : Limited
    Color primaries : BT.709
    Transfer characteristics : BT.709
    Matrix coefficients : BT.709

    Audio #1
    ID : 2
    Format : FLAC
    Format/Info : Free Lossless Audio Codec
    Codec ID : A_FLAC
    Duration : 2 h 52 min
    Bit rate mode : Variable
    Bit rate : 3 402 kb/s
    Channel(s) : 6 channels
    Channel layout : L R C LFE Ls Rs
    Sampling rate : 48.0 kHz
    Frame rate : 11.719 FPS (4096 SPF)
    Bit depth : 24 bits
    Compression mode : Lossless
    Delay relative to video : 142 ms
    Stream size : 4.11 GiB
    Writing library : libFLAC 1.3.1 (UTC 2014-11-25)
    Language : English
    Default : Yes
    Forced : No

    Audio #2
    ID : 3
    Format : MPEG Audio
    Format version : Version 1
    Format profile : Layer 2
    Codec ID : A_MPEG/L2
    Codec ID/Hint : MP2
    Duration : 2 h 52 min
    Bit rate mode : Constant
    Bit rate : 384 kb/s
    Channel(s) : 2 channels
    Sampling rate : 48.0 kHz
    Frame rate : 41.667 FPS (1152 SPF)
    Compression mode : Lossy
    Delay relative to video : 115 ms
    Stream size : 475 MiB (56%)
    Language : English
    Default : No
    Forced : No


    Link(s):
    Hidden Content:
    You must either reply or click 'Like' to see the hidden information contained here.
     
    Last edited: Feb 14, 2019
    ridhoyudi, rkn9, Vinny and 7 others like this.
  2. CELOBRAZiL

    CELOBRAZiL Well-Known Member Capper V . I . P. Donor

    Joined:
    Oct 2, 2013
    Messages:
    8,276
    Likes Received:
    29,294
  3. CELOBRAZiL

    CELOBRAZiL Well-Known Member Capper V . I . P. Donor

    Joined:
    Oct 2, 2013
    Messages:
    8,276
    Likes Received:
    29,294
    Added links:
    • zippyshare.com
    • files.fm
    • Microsoft OneDrive
     
  4. digimaze

    digimaze Well-Known Member

    Joined:
    Feb 11, 2015
    Messages:
    2,340
    Likes Received:
    200
    thanks
     
    CELOBRAZiL likes this.
  5. rhea

    rhea Well-Known Member

    Joined:
    Jan 6, 2014
    Messages:
    10,482
    Likes Received:
    1,898
    thank you so much
     
    CELOBRAZiL likes this.
  6. hulimili

    hulimili Member

    Joined:
    Feb 6, 2018
    Messages:
    151
    Likes Received:
    22
    wonderful
     
    CELOBRAZiL likes this.
  7. rollergirl1621

    rollergirl1621 Active Member

    Joined:
    Aug 24, 2017
    Messages:
    404
    Likes Received:
    42
    thank you
     
    CELOBRAZiL likes this.
  8. tailesi

    tailesi Member

    Joined:
    Jan 10, 2019
    Messages:
    164
    Likes Received:
    5
    super awesome
     
  9. Enzo

    Enzo Active Member

    Joined:
    Apr 23, 2014
    Messages:
    257
    Likes Received:
    27
    Thanks!
     
  10. Clementnezz

    Clementnezz Member

    Joined:
    Jun 8, 2017
    Messages:
    145
    Likes Received:
    6
    excalibour
     
  11. Jenkins

    Jenkins Well-Known Member

    Joined:
    May 30, 2019
    Messages:
    24,595
    Likes Received:
    582
    THANKS
     
  12. dgnio

    dgnio Well-Known Member Capper Uploader

    Joined:
    Jul 7, 2014
    Messages:
    2,131
    Likes Received:
    738
    thank you