WEB-RiP Dan Reynolds (Imagine Dragons)- Believer: Documentary (HBO)

Discussion in 'Documentaries' started by murayan_k, Jul 7, 2018.

  1. murayan_k

    murayan_k Active Member

    Joined:
    Dec 12, 2016
    Messages:
    171
    Likes Received:
    41
    [​IMG]

    Code:
    Format                         : Matroska
    Format version                 : Version 4 / Version 2
    File size                      : 2.46 GiB
    Duration                       : 1 h 43 min
    Overall bit rate               : 3 413 kb/s
    Encoded date                   : UTC 2018-06-26 00:22:01
    Writing application            : mkvmerge v21.0.0 ('Tardigrades Will Inherit The Earth') 64-bit
    Writing library                : libebml v1.3.5 + libmatroska v1.4.8
    
    Video
    ID                             : 1
    Format                         : AVC
    Format/Info                    : Advanced Video Codec
    Format profile                 : High@L3.1
    Format settings, CABAC         : Yes
    Format settings, RefFrames     : 5 frames
    Codec ID                       : V_MPEG4/ISO/AVC
    Duration                       : 1 h 43 min
    Bit rate                       : 2 771 kb/s
    Width                          : 1 280 pixels
    Height                         : 720 pixels
    Display aspect ratio           : 16:9
    Frame rate mode                : Constant
    Frame rate                     : 23.976 (24000/1001) FPS
    Color space                    : YUV
    Chroma subsampling             : 4:2:0
    Bit depth                      : 8 bits
    Scan type                      : Progressive
    Bits/(Pixel*Frame)             : 0.125
    Stream size                    : 1.99 GiB (81%)
    Default                        : Yes
    Forced                         : No
    Color range                    : Limited
    Color primaries                : BT.709
    Transfer characteristics       : BT.709
    Matrix coefficients            : BT.709
    
    Audio
    ID                             : 2
    Format                         : E-AC-3
    Format/Info                    : Enhanced Audio Coding 3
    Format settings, Endianness    : Big
    Codec ID                       : A_EAC3
    Duration                       : 1 h 43 min
    Bit rate mode                  : Constant
    Bit rate                       : 640 kb/s
    Channel(s)                     : 6 channels
    Channel positions              : Front: L C R, Side: L R, LFE
    Sampling rate                  : 48.0 kHz
    Frame rate                     : 187.500 FPS (256 SPF)
    Compression mode               : Lossy
    Stream size                    : 472 MiB (19%)
    Language                       : English
    Service kind                   : Complete Main
    Default                        : Yes
    Forced                         : No
    
    Text
    ID                             : 3
    Format                         : UTF-8
    Codec ID                       : S_TEXT/UTF8
    Codec ID/Info                  : UTF-8 Plain Text
    Duration                       : 1 h 42 min
    Bit rate                       : 101 b/s
    Count of elements              : 2136
    Stream size                    : 76.4 KiB (0%)
    Title                          : SDH
    Language                       : English
    Default                        : No
    Forced                         : No
    Hidden Content:
    You must reply before you can see the hidden data contained here.
     
  2. ahoyhoy

    ahoyhoy Member

    Joined:
    Nov 20, 2017
    Messages:
    42
    Likes Received:
    3
    Thanks
     
  3. mtscody

    mtscody New Member

    Joined:
    Jan 5, 2018
    Messages:
    16
    Likes Received:
    0
    I can't wait to watch!
     
  4. aturner18

    aturner18 Well-Known Member

    Joined:
    Oct 2, 2014
    Messages:
    1,608
    Likes Received:
    147
    thanks
     
  5. samkutcher

    samkutcher Member

    Joined:
    Jan 12, 2016
    Messages:
    208
    Likes Received:
    12
    thankss
     
  6. Chris Sooz

    Chris Sooz Member

    Joined:
    Jan 13, 2016
    Messages:
    289
    Likes Received:
    3
  7. Jesley Viana

    Jesley Viana Member

    Joined:
    May 2, 2017
    Messages:
    35
    Likes Received:
    4
    thgankyou
     
  8. killer_rose

    killer_rose Member

    Joined:
    Sep 22, 2014
    Messages:
    72
    Likes Received:
    8
  9. Pandora30012

    Pandora30012 New Member

    Joined:
    Apr 17, 2017
    Messages:
    14
    Likes Received:
    0
  10. Rod89

    Rod89 Member

    Joined:
    Oct 2, 2017
    Messages:
    95
    Likes Received:
    7
    Thank you
     
  11. 2J1S90

    2J1S90 Member

    Joined:
    Nov 23, 2016
    Messages:
    480
    Likes Received:
    9
    Thanks