Daft Punk - One More Time (MTV PULSE HD-1080i-DD2.0-Olgold)

Discussion in 'MTV PULSE HD' started by DETOX, Feb 24, 2015.

  1. DETOX

    DETOX Well-Known Member V . I . P. Uploader

    Joined:
    Feb 20, 2014
    Messages:
    2,721
    Likes Received:
    13,799


    Daft Punk - One More Time (MTV PULSE HD-1080i-DD2.0-Olgold)

    [​IMG]

    General
    ID : 16 (0x10)
    Complete name : Daft Punk - One More Time (MTV PULSE HD-1080i-DD2.0-Olgold).ts
    Format : MPEG-TS
    File size : 124 MiB
    Duration : 2mn 56s
    Overall bit rate mode : Variable
    Overall bit rate : 5 895 Kbps

    Video
    ID : 210 (0xD2)
    Menu ID : 8002 (0x1F42)
    Format : AVC
    Format/Info : Advanced Video Codec
    Format profile : High@L4.0
    Format settings, CABAC : Yes
    Format settings, ReFrames : 4 frames
    Format settings, GOP : M=8, N=24
    Codec ID : 27
    Duration : 2mn 56s
    Bit rate : 5 346 Kbps
    Width : 1 920 pixels
    Height : 1 080 pixels
    Display aspect ratio : 16:9
    Frame rate : 25.000 fps
    Standard : Component
    Color space : YUV
    Chroma subsampling : 4:2:0
    Bit depth : 8 bits
    Scan type : MBAFF
    Scan order : Top Field First
    Bits/(Pixel*Frame) : 0.103
    Stream size : 112 MiB (91%)
    Color primaries : BT.709
    Transfer characteristics : BT.709
    Matrix coefficients : BT.709
    Color range : Limited

    Audio
    ID : 221 (0xDD)
    Menu ID : 8002 (0x1F42)
    Format : AC-3
    Format/Info : Audio Coding 3
    Mode extension : CM (complete main)
    Format settings, Endianness : Big
    Codec ID : 6
    Duration : 2mn 56s
    Bit rate mode : Constant
    Bit rate : 256 Kbps
    Channel(s) : 2 channels
    Channel positions : Front: L R
    Sampling rate : 48.0 KHz
    Bit depth : 16 bits
    Compression mode : Lossy
    Delay relative to video : 72ms
    Stream size : 5.38 MiB (4%)
    Language : French
    Language, more info : Clean effects

    Credits to Olgold

    SERVER: MEGA / PASSWORD: DETOX

    Hidden Content:
    You must reply before you can see the hidden data contained here.
     
    rhea and CELOBRAZiL like this.
  2. rhea

    rhea Well-Known Member

    Joined:
    Jan 6, 2014
    Messages:
    5,258
    Likes Received:
    253
    thank you so much
     
  3. tsm897

    tsm897 Member

    Joined:
    Apr 16, 2014
    Messages:
    129
    Likes Received:
    3
    thank you so much 2
     
  4. rashka

    rashka Member

    Joined:
    Apr 8, 2014
    Messages:
    200
    Likes Received:
    7
    Thank you so much!
     
  5. DennisAvA

    DennisAvA Member

    Joined:
    Nov 15, 2014
    Messages:
    31
    Likes Received:
    1
    Thank You :D
     
  6. jorge7m

    jorge7m Member

    Joined:
    Sep 27, 2014
    Messages:
    28
    Likes Received:
    0
    thank u!!
     
  7. Emazing

    Emazing Member

    Joined:
    Nov 6, 2013
    Messages:
    48
    Likes Received:
    0
    thanks for this
     
  8. lukierrywhere

    lukierrywhere Member

    Joined:
    May 1, 2015
    Messages:
    157
    Likes Received:
    1
  9. Dreamer

    Dreamer ♫ It's Britney Bitch ♫ Capper Uploader

    Joined:
    Dec 4, 2014
    Messages:
    2,209
    Likes Received:
    1,922
    Thank you
     
  10. alberto piper naro

    alberto piper naro Member

    Joined:
    Jul 4, 2015
    Messages:
    400
    Likes Received:
    13
  11. sebasswift

    sebasswift Member

    Joined:
    Oct 26, 2015
    Messages:
    117
    Likes Received:
    4
    gracias tienes videos de thalia o de MTV tr3s???
     
  12. Flaxdevil

    Flaxdevil Member

    Joined:
    May 25, 2014
    Messages:
    206
    Likes Received:
    6
    Daft punk!
     
  13. Snorom6

    Snorom6 Well-Known Member Uploader

    Joined:
    Dec 17, 2015
    Messages:
    4,246
    Likes Received:
    3,522
  14. RUS22877773

    RUS22877773 Member

    Joined:
    Jan 7, 2016
    Messages:
    101
    Likes Received:
    0
    thank you
     
  15. williamcaracas

    williamcaracas Member

    Joined:
    Nov 29, 2013
    Messages:
    151
    Likes Received:
    2
  16. TrendMusic

    TrendMusic Active Member

    Joined:
    Oct 7, 2013
    Messages:
    910
    Likes Received:
    48
  17. Pavulon

    Pavulon Active Member

    Joined:
    Mar 22, 2016
    Messages:
    1,040
    Likes Received:
    11
    thanks
     
  18. tapions

    tapions Active Member

    Joined:
    Aug 30, 2016
    Messages:
    758
    Likes Received:
    50
    gracias
     
  19. CristianMatias

    CristianMatias Member

    Joined:
    Sep 17, 2016
    Messages:
    541
    Likes Received:
    17
  20. CristianMatias

    CristianMatias Member

    Joined:
    Sep 17, 2016
    Messages:
    541
    Likes Received:
    17