Daddy Yankee - Rompe (MHD 1080i)

Discussion in 'MHD' started by hd1026, Sep 19, 2017.

  1. hd1026

    hd1026 Member Donor

    Joined:
    Jul 31, 2017
    Messages:
    50
    Likes Received:
    11
    [​IMG]

    General
    ID : 1 (0x1)
    Complete name : E:\HD MV\Daddy Yankee - Rompe (MHD 1080i).ts
    Format : MPEG-TS
    File size : 409 MiB
    Duration : 3 min 14 s
    Overall bit rate mode : Variable
    Overall bit rate : 17.6 Mb/s
    Law rating : TV-PG (DL)

    Video
    ID : 1984 (0x7C0)
    Menu ID : 1 (0x1)
    Format : MPEG Video
    Format version : Version 2
    Format profile : [email protected]
    Format settings, BVOP : Yes
    Format settings, Matrix : Custom
    Format settings, GOP : Variable
    Codec ID : 2
    Duration : 3 min 14 s
    Bit rate mode : Variable
    Bit rate : 16.4 Mb/s
    Maximum bit rate : 25.0 Mb/s
    Width : 1 920 pixels
    Height : 1 080 pixels
    Display aspect ratio : 16:9
    Frame rate : 29.970 (30000/1001) FPS
    Standard : Component
    Color space : YUV
    Chroma subsampling : 4:2:0
    Bit depth : 8 bits
    Compression mode : Lossy
    Bits/(Pixel*Frame) : 0.263
    Time code of first frame : 00:00:00;00
    Time code source : Group of pictures header
    Stream size : 380 MiB (93%)
    Color primaries : BT.709
    Transfer characteristics : BT.709
    Matrix coefficients : BT.709

    Audio
    ID : 1985 (0x7C1)
    Menu ID : 1 (0x1)
    Format : AC-3
    Format/Info : Audio Coding 3
    Format settings, Endianness : Big
    Codec ID : 129
    Duration : 3 min 14 s
    Bit rate mode : Constant
    Bit rate : 384 kb/s
    Channel(s) : 6 channels
    Channel positions : Front: L C R, Side: L R, LFE
    Sampling rate : 48.0 kHz
    Frame rate : 31.250 FPS (1536 SPF)
    Bit depth : 16 bits
    Compression mode : Lossy
    Stream size : 8.91 MiB (2%)
    Service kind : Complete Main

    Text #1
    ID : 1984 (0x7C0)-CC1
    Menu ID : 1 (0x1)
    Format : EIA-608
    Muxing mode : A/53 / DTVCC Transport
    Muxing mode, more info : Muxed in Video #1
    Duration : 3 min 14 s
    Bit rate mode : Constant
    Stream size : 0.00 Byte (0%)
    CaptionServiceName : CC1

    Text #2
    ID : 1984 (0x7C0)-CC3
    Menu ID : 1 (0x1)
    Format : EIA-608
    Muxing mode : A/53 / DTVCC Transport
    Muxing mode, more info : Muxed in Video #1
    Duration : 3 min 14 s
    Bit rate mode : Constant
    Stream size : 0.00 Byte (0%)
    CaptionServiceName : CC3

    Text #3
    ID : 1984 (0x7C0)-1
    Menu ID : 1 (0x1)
    Format : EIA-708
    Muxing mode : A/53 / DTVCC Transport
    Muxing mode, more info : Muxed in Video #1
    Duration : 3 min 14 s
    Bit rate mode : Constant
    Stream size : 0.00 Byte (0%)

    Download

    Hidden Content:
    You must reply before you can see the hidden data contained here.
     
    Last edited: Sep 19, 2017
    DiVenturas likes this.
  2. mat2103

    mat2103 Member

    Joined:
    Dec 6, 2016
    Messages:
    494
    Likes Received:
    19
    Exelent, thank you :)
     
  3. adam dark

    adam dark Video Music Lover <3 V . I . P.

    Joined:
    Dec 5, 2013
    Messages:
    2,621
    Likes Received:
    5,048
    thanks
     
    Last edited: Sep 19, 2017
  4. Danny82

    Danny82 Well-Known Member

    Joined:
    May 28, 2016
    Messages:
    2,087
    Likes Received:
    550
    Gracias por compartir esto!!!
     
  5. DiVenturas

    DiVenturas Well-Known Member

    Joined:
    Oct 21, 2015
    Messages:
    2,739
    Likes Received:
    142
  6. brownbradpitt613

    brownbradpitt613 Member

    Joined:
    Sep 3, 2017
    Messages:
    636
    Likes Received:
    9
    thanks!
     
  7. djtorrent

    djtorrent New Member

    Joined:
    Nov 18, 2016
    Messages:
    23
    Likes Received:
    0
    Thanks!
     
  8. RageBads

    RageBads Member

    Joined:
    Dec 2, 2017
    Messages:
    68
    Likes Received:
    3
    thanks
     
  9. lovegungun

    lovegungun Member

    Joined:
    Dec 8, 2017
    Messages:
    77
    Likes Received:
    5
  10. fabiiocaballero

    fabiiocaballero New Member

    Joined:
    Saturday
    Messages:
    21
    Likes Received:
    0