Daddy Yankee "Llegamos A La Disco" Long Version [H.264-AAC-720P]

Discussion in 'MASTER & MASTER RIP' started by dgol22, May 26, 2020.

  1. dgol22

    dgol22 Well-Known Member

    Joined:
    Sep 2, 2018
    Messages:
    344
    Likes Received:
    463

    Daddy Yankee "Llegamos A La Disco" Long Version [H.264-AAC-720P]



    [​IMG]


    General
    Complete name : Daddy Yankee "Llegamos A La Disco" Long Version.mp4
    Format : MPEG-4
    Format profile : Base Media / Version 2
    Codec ID : mp42
    File size : 443 MiB
    Duration : 7mn 59s
    Overall bit rate : 7 745 Kbps
    Encoded date : UTC 2011-09-09 19:45:16
    Tagged date : UTC 2011-09-09 19:45:22

    Video
    ID : 1
    Format : AVC
    Format/Info : Advanced Video Codec
    Format profile : Baseline@L4.0
    Format settings, CABAC : No
    Format settings, ReFrames : 2 frames
    Format settings, GOP : M=1, N=120
    Codec ID : avc1
    Codec ID/Info : Advanced Video Coding
    Duration : 7mn 59s
    Bit rate : 7 486 Kbps
    Width : 1 280 pixels
    Height : 720 pixels
    Display aspect ratio : 16:9
    Frame rate mode : Constant
    Frame rate : 23.976 fps
    Color space : YUV
    Chroma subsampling : 4:2:0
    Bit depth : 8 bits
    Scan type : Progressive
    Bits/(Pixel*Frame) : 0.339
    Stream size : 428 MiB (97%)
    Language : English
    Encoded date : UTC 2011-09-09 19:45:16
    Tagged date : UTC 2011-09-09 19:45:22
    Color primaries : BT.709
    Transfer characteristics : BT.709
    Matrix coefficients : BT.709

    Audio
    ID : 2
    Format : AAC
    Format/Info : Advanced Audio Codec
    Format profile : LC
    Codec ID : 40
    Duration : 7mn 59s
    Bit rate mode : Constant
    Bit rate : 256 Kbps
    Channel(s) : 2 channels
    Channel positions : Front: L R
    Sampling rate : 48.0 KHz
    Compression mode : Lossy
    Stream size : 14.6 MiB (3%)
    Language : English
    Encoded date : UTC 2011-09-09 19:45:16
    Tagged date : UTC 2011-09-09 19:45:22


    Hidden Content:
    You must reply before you can see the hidden data contained here.
     
    Last edited: May 26, 2020
    piolamago and DiVenturas like this.
  2. Loading...


  3. yilder1

    yilder1 Well-Known Member

    Joined:
    Aug 25, 2016
    Messages:
    1,095
    Likes Received:
    192
    gracias amigo!
     
  4. sebamax

    sebamax Active Member

    Joined:
    Aug 28, 2016
    Messages:
    1,547
    Likes Received:
    20
    thanks
     
  5. jb13

    jb13 Well-Known Member

    Joined:
    Oct 24, 2017
    Messages:
    1,181
    Likes Received:
    57
    gracias
     
  6. user2016

    user2016 Active Member

    Joined:
    Nov 9, 2016
    Messages:
    348
    Likes Received:
    30
    Gracias
     
  7. DiVenturas

    DiVenturas Well-Known Member

    Joined:
    Oct 21, 2015
    Messages:
    3,473
    Likes Received:
    227
    Thanks!
     
  8. X2016X

    X2016X Member

    Joined:
    May 20, 2016
    Messages:
    92
    Likes Received:
    7
    Gracias gran video
     
  9. Nene14

    Nene14 Member

    Joined:
    Mar 1, 2019
    Messages:
    301
    Likes Received:
    5
    thanks broooo
     
  10. piolamago

    piolamago Member

    Joined:
    Apr 29, 2020
    Messages:
    132
    Likes Received:
    4
    Gracias papa
     
  11. Vinny

    Vinny Well-Known Member

    Joined:
    Dec 26, 2013
    Messages:
    4,678
    Likes Received:
    72
    Thanks
     
  12. looky

    looky Active Member

    Joined:
    Mar 22, 2017
    Messages:
    876
    Likes Received:
    25
    Thanks
     
  13. aepr

    aepr Active Member

    Joined:
    Jul 12, 2019
    Messages:
    560
    Likes Received:
    36
    Thanks
     
  14. Lordbr666

    Lordbr666 Active Member

    Joined:
    May 24, 2020
    Messages:
    1,796
    Likes Received:
    17
    Thank You!