Cvetelina Ianeva - Alergichna (2014) (PlanetaHD 1080p FULL HD)

Discussion in 'PLANETA HD' started by HDTiVi, Jun 16, 2014.

  1. HDTiVi

    HDTiVi Active Member

    Joined:
    Jun 16, 2014
    Messages:
    37
    Likes Received:
    281
    Cvetelina Ianeva - Alergichna (2014) (PlanetaHD 1080p FULL HD)

    [​IMG]
    [​IMG]
    Format : BDAV
    Format/Info : Blu-ray Video
    File size : 303 MiB
    Duration : 4mn 44s
    Overall bit rate mode : Variable
    Overall bit rate : 8 944 Kbps

    Video
    ID : 4113 (0x1011)
    Menu ID : 1 (0x1)
    Format : AVC
    Format/Info : Advanced Video Codec
    Format profile : [email protected]
    Format settings, CABAC : Yes
    Format settings, ReFrames : 4 frames
    Codec ID : 27
    Duration : 4mn 44s
    Bit rate : 7 045 Kbps
    Width : 1 920 pixels
    Height : 1 080 pixels
    Display aspect ratio : 16:9
    Frame rate : 25.000 fps
    Color space : YUV
    Chroma subsampling : 4:2:0
    Bit depth : 8 bits
    Scan type : Interlaced
    Scan order : Top Field First
    Bits/(Pixel*Frame) : 0.136
    Stream size : 239 MiB (79%)
    Color primaries : BT.709
    Transfer characteristics : BT.709
    Matrix coefficients : BT.709

    Audio
    ID : 4352 (0x1100)
    Menu ID : 1 (0x1)
    Format : PCM
    Format settings, Endianness : Big
    Format settings, Sign : Signed
    Muxing mode : Blu-ray
    Codec ID : 128
    Duration : 4mn 44s
    Bit rate mode : Constant
    Bit rate : 1 536 Kbps
    Channel count : 2 channels
    Channel positions : Front: L R
    Sampling rate : 48.0 KHz
    Bit depth : 16 bits
    Stream size : 52.1 MiB (17%)

    Hidden Content:
    You must either reply or click 'Like' to see the hidden information contained here.
     
    Last edited: Jan 28, 2016
    jans1330, johymbim, rhea and 3 others like this.
  2. DETOX

    DETOX K-POP fan ♡ V . I . P. Uploader

    Joined:
    Feb 20, 2014
    Messages:
    2,997
    Likes Received:
    20,096
    Thank you so much for sharing! :happy:
    I love Цветелина Янева!
    ♥♥♥♥♥
     
  3. rhea

    rhea Well-Known Member

    Joined:
    Jan 6, 2014
    Messages:
    6,213
    Likes Received:
    515
    thank you so much :)
     
  4. mizdot

    mizdot Well-Known Member

    Joined:
    Nov 13, 2014
    Messages:
    1,532
    Likes Received:
    31
    tnx man
     
  5. jayananda

    jayananda Active Member

    Joined:
    Jan 14, 2015
    Messages:
    424
    Likes Received:
    80
    Thank You
     
  6. HDTiVi

    HDTiVi Active Member

    Joined:
    Jun 16, 2014
    Messages:
    37
    Likes Received:
    281
    Links updated :)
     
  7. Pavulon

    Pavulon Well-Known Member

    Joined:
    Mar 22, 2016
    Messages:
    2,354
    Likes Received:
    197
    thanks
     
  8. andy80

    andy80 Member

    Joined:
    Sep 25, 2016
    Messages:
    59
    Likes Received:
    7
    sexy girls! thanks
     
  9. araz

    araz New Member

    Joined:
    Nov 13, 2016
    Messages:
    17
    Likes Received:
    0
    thanks