Culture Club - Do You Really Want To Hurt Me (MTVPulse-1080i-DD2.0)-Olgold

Discussion in 'MTV PULSE HD' started by Olgold, Aug 27, 2015.

  1. Olgold

    Olgold Well-Known Member Capper

    Joined:
    Aug 19, 2015
    Messages:
    386
    Likes Received:
    1,303
    [​IMG]
    General
    Format : MPEG-TS
    File size : 243 MiB
    Duration : 4mn 24s
    Overall bit rate mode : Variable
    Overall bit rate : 7 730 Kbps

    Video
    Format : AVC
    Format/Info : Advanced Video Codec
    Format profile : [email protected]
    Format settings, CABAC : Yes
    Format settings, ReFrames : 4 frames
    Duration : 4mn 23s
    Bit rate : 7 089 Kbps
    Width : 1 920 pixels
    Height : 1 080 pixels
    Display aspect ratio : 16:9
    Frame rate : 25.000 fps
    Standard : Component
    Color space : YUV
    Chroma subsampling : 4:2:0
    Bit depth : 8 bits
    Scan type : MBAFF
    Scan order : Top Field First
    Bits/(Pixel*Frame) : 0.137
    Stream size : 223 MiB (92%)
    Color range : Limited

    Audio
    Format : AC-3
    Format/Info : Audio Coding 3
    Mode extension : CM (complete main)
    Format settings, Endianness : Big
    Duration : 4mn 23s
    Bit rate mode : Constant
    Bit rate : 256 Kbps
    Channel(s) : 2 channels
    Channel positions : Front: L R
    Sampling rate : 48.0 KHz
    Compression mode : Lossy
    Delay relative to video : 152ms
    Stream size : 8.05 MiB (3%)
    Language : French

    Hidden Content:
    You must reply before you can see the hidden data contained here.
     
  2. 777josem

    777josem Well-Known Member Uploader

    Joined:
    Sep 1, 2014
    Messages:
    2,341
    Likes Received:
    1,252
    Me too!:DI love Culture Club!
     
  3. 777josem

    777josem Well-Known Member Uploader

    Joined:
    Sep 1, 2014
    Messages:
    2,341
    Likes Received:
    1,252
    Thank you so much, Olgold. If you have video "Karma Chameleon", please, upload file:victory:Thank you!
     
  4. rhea

    rhea Well-Known Member

    Joined:
    Jan 6, 2014
    Messages:
    5,193
    Likes Received:
    250
    thank you so much
     
  5. lukierrywhere

    lukierrywhere Member

    Joined:
    May 1, 2015
    Messages:
    157
    Likes Received:
    1
  6. HDMjuzik

    HDMjuzik Member

    Joined:
    Feb 4, 2015
    Messages:
    59
    Likes Received:
    2
    thank youuu
     
  7. Flaxdevil

    Flaxdevil Member

    Joined:
    May 25, 2014
    Messages:
    205
    Likes Received:
    6
    classic boy george
     
  8. J_Pablo

    J_Pablo Active Member

    Joined:
    Nov 27, 2013
    Messages:
    417
    Likes Received:
    56
    love love this song... I don't like so much the video but It was on 1982
     
  9. vaci

    vaci Member

    Joined:
    Jul 16, 2016
    Messages:
    65
    Likes Received:
    2
    thank youuu
     
  10. tapions

    tapions Active Member

    Joined:
    Aug 30, 2016
    Messages:
    749
    Likes Received:
    47
    gracias
     
  11. braciata

    braciata Well-Known Member

    Joined:
    Oct 16, 2014
    Messages:
    377
    Likes Received:
    320
    thxxxxxxxxxxxx
     
  12. BillyTaylor

    BillyTaylor Member

    Joined:
    Nov 27, 2016
    Messages:
    60
    Likes Received:
    0
  13. revilo18

    revilo18 Well-Known Member

    Joined:
    May 26, 2016
    Messages:
    1,278
    Likes Received:
    51
    THANKKK