Crazy Town - Butterfly (MTVIdol-1080i-DD2.0)-Olgold

Discussion in 'MTV IDOL' started by Olgold, Aug 20, 2015.

  1. Olgold

    Olgold Well-Known Member Capper

    Joined:
    Aug 19, 2015
    Messages:
    436
    Likes Received:
    2,052
    [​IMG]
    General
    Format : MPEG-TS
    File size : 186 MiB
    Duration : 3mn 32s
    Overall bit rate mode : Variable
    Overall bit rate : 7 224 Kbps

    Video
    Format : AVC
    Format/Info : Advanced Video Codec
    Format profile : High@L4
    Format settings, CABAC : Yes
    Format settings, ReFrames : 4 frames
    Duration : 3mn 30s
    Bit rate : 6 673 Kbps
    Width : 1 920 pixels
    Height : 1 080 pixels
    Display aspect ratio : 16:9
    Frame rate : 25.000 fps
    Standard : Component
    Color space : YUV
    Chroma subsampling : 4:2:0
    Bit depth : 8 bits
    Scan type : MBAFF
    Scan order : Top Field First
    Bits/(Pixel*Frame) : 0.129
    Stream size : 168 MiB (90%)
    Encryption : Seca Mediaguard 1/2
    Color range : Limited

    Audio
    Format : AC-3
    Format/Info : Audio Coding 3
    Mode extension : CM (complete main)
    Format settings, Endianness : Big
    Duration : 3mn 33s
    Bit rate mode : Constant
    Bit rate : 192 Kbps
    Channel(s) : 2 channels
    Channel positions : Front: L R
    Sampling rate : 48.0 KHz
    Compression mode : Lossy
    Delay relative to video : -1s 525ms
    Stream size : 4.88 MiB (3%)
    Language : French

    Hidden Content:
    You must reply before you can see the hidden data contained here.
     
    millerfame73, adam dark, rhea and 2 others like this.
  2. 777josem

    777josem ProRes 1080p LPCM V . I . P. Uploader

    Joined:
    Sep 1, 2014
    Messages:
    3,886
    Likes Received:
    5,478
    Thank you so much!
     
  3. MaggieS

    MaggieS Well-Known Member

    Joined:
    Sep 19, 2014
    Messages:
    1,262
    Likes Received:
    83
    TNX U
     
  4. xaro

    xaro Member

    Joined:
    Jun 7, 2014
    Messages:
    183
    Likes Received:
    3
    Thank u
     
  5. Dreamer

    Dreamer Lana Del Slay V . I . P. Uploader

    Joined:
    Dec 4, 2014
    Messages:
    3,210
    Likes Received:
    11,032
    Thank you
     
  6. rhea

    rhea Well-Known Member

    Joined:
    Jan 6, 2014
    Messages:
    11,480
    Likes Received:
    2,207
    thank you so much
     
  7. Crusha

    Crusha Well-Known Member Capper V . I . P.

    Joined:
    Oct 15, 2014
    Messages:
    2,574
    Likes Received:
    4,159
    thank you
     
  8. aturner18

    aturner18 Well-Known Member

    Joined:
    Oct 2, 2014
    Messages:
    2,080
    Likes Received:
    231
    thank u
     
  9. jonathan joel 97

    jonathan joel 97 Sasuke

    Joined:
    Oct 1, 2015
    Messages:
    446
    Likes Received:
    279
    this is a great song thank you!
     
  10. HDMjuzik

    HDMjuzik Member

    Joined:
    Feb 4, 2015
    Messages:
    79
    Likes Received:
    5
    thank you very much
     
  11. wwepan

    wwepan Member

    Joined:
    Oct 21, 2015
    Messages:
    39
    Likes Received:
    1
    Thank You
     
  12. lukierrywhere

    lukierrywhere Member

    Joined:
    May 1, 2015
    Messages:
    219
    Likes Received:
    10
  13. sebasswift

    sebasswift Member

    Joined:
    Oct 26, 2015
    Messages:
    117
    Likes Received:
    5
    remember this video
     
  14. adam dark

    adam dark Video Music Lover <3 V . I . P.

    Joined:
    Dec 5, 2013
    Messages:
    2,877
    Likes Received:
    8,150
    thank you so much!!!
     
  15. arnold

    arnold Member

    Joined:
    Oct 29, 2014
    Messages:
    241
    Likes Received:
    5
    thank you
     
  16. Flaxdevil

    Flaxdevil Member

    Joined:
    May 25, 2014
    Messages:
    285
    Likes Received:
    14
    Gracias!
     
  17. Dima24684

    Dima24684 Member

    Joined:
    Dec 20, 2015
    Messages:
    463
    Likes Received:
    20
    thanks
     
  18. Zeeh

    Zeeh Rallyforrivers.org

    Joined:
    Mar 20, 2015
    Messages:
    754
    Likes Received:
    31
    Thank you
     
  19. TrendMusic

    TrendMusic Well-Known Member

    Joined:
    Oct 7, 2013
    Messages:
    2,224
    Likes Received:
    263
  20. Pavulon

    Pavulon Well-Known Member Donor

    Joined:
    Mar 22, 2016
    Messages:
    5,031
    Likes Received:
    1,648
    thanks