Coolio - Gangstas Paradise (MTVIdol-1080i-DD2.0)-Olgold

Discussion in 'MTV IDOL' started by Olgold, Aug 27, 2015.

  1. Olgold

    Olgold Well-Known Member Capper

    Joined:
    Aug 19, 2015
    Messages:
    436
    Likes Received:
    1,784
    [​IMG]
    General
    Format : MPEG-TS
    File size : 161 MiB
    Duration : 4mn 14s
    Overall bit rate mode : Variable
    Overall bit rate : 5 308 Kbps

    Video
    Format : AVC
    Format/Info : Advanced Video Codec
    Format profile : High@L4
    Format settings, CABAC : Yes
    Format settings, ReFrames : 4 frames
    Duration : 4mn 14s
    Bit rate : 4 787 Kbps
    Width : 1 920 pixels
    Height : 1 080 pixels
    Display aspect ratio : 16:9
    Frame rate : 25.000 fps
    Standard : Component
    Color space : YUV
    Chroma subsampling : 4:2:0
    Bit depth : 8 bits
    Scan type : MBAFF
    Scan order : Top Field First
    Bits/(Pixel*Frame) : 0.092
    Stream size : 145 MiB (90%)
    Color range : Limited

    Audio
    Format : AC-3
    Format/Info : Audio Coding 3
    Mode extension : CM (complete main)
    Format settings, Endianness : Big
    Duration : 4mn 14s
    Bit rate mode : Constant
    Bit rate : 256 Kbps
    Channel(s) : 2 channels
    Channel positions : Front: L R
    Sampling rate : 48.0 KHz
    Compression mode : Lossy
    Delay relative to video : 72ms
    Stream size : 7.78 MiB (5%)
    Language : French

    Hidden Content:
    You must reply before you can see the hidden data contained here.
     
  2. rhea

    rhea Well-Known Member

    Joined:
    Jan 6, 2014
    Messages:
    7,842
    Likes Received:
    999
    thank you so much
     
  3. HDMjuzik

    HDMjuzik Member

    Joined:
    Feb 4, 2015
    Messages:
    61
    Likes Received:
    2
    OMG! thank yuu so much :mad:
     
  4. wwepan

    wwepan Member

    Joined:
    Oct 21, 2015
    Messages:
    39
    Likes Received:
    0
    Thank You
     
  5. J_Pablo

    J_Pablo Active Member

    Joined:
    Nov 27, 2013
    Messages:
    577
    Likes Received:
    156
    Thanks for the video
     
  6. Flaxdevil

    Flaxdevil Member

    Joined:
    May 25, 2014
    Messages:
    285
    Likes Received:
    12
    thanks
     
  7. MaggieS

    MaggieS Well-Known Member

    Joined:
    Sep 19, 2014
    Messages:
    1,076
    Likes Received:
    56
    TNX U
     
  8. Snorom6

    Snorom6 Well-Known Member V . I . P. Uploader

    Joined:
    Dec 17, 2015
    Messages:
    4,248
    Likes Received:
    5,843
  9. RUS22877773

    RUS22877773 Member

    Joined:
    Jan 7, 2016
    Messages:
    101
    Likes Received:
    1
    thank you
     
  10. tsm897

    tsm897 Member

    Joined:
    Apr 16, 2014
    Messages:
    146
    Likes Received:
    5
    thank you
     
  11. slash

    slash Member

    Joined:
    Mar 17, 2016
    Messages:
    63
    Likes Received:
    2
    thanks
     
  12. TrendMusic

    TrendMusic Well-Known Member

    Joined:
    Oct 7, 2013
    Messages:
    1,668
    Likes Received:
    155
  13. ors72

    ors72 New Member

    Joined:
    Feb 26, 2016
    Messages:
    18
    Likes Received:
    0
    thank you very much
     
  14. Pavulon

    Pavulon Well-Known Member Donor

    Joined:
    Mar 22, 2016
    Messages:
    4,476
    Likes Received:
    916
    thanks
     
  15. tknobi

    tknobi Well-Known Member

    Joined:
    Feb 22, 2014
    Messages:
    674
    Likes Received:
    1,585
    Thanks!!
     
  16. Clannadan

    Clannadan Active Member

    Joined:
    Jun 17, 2016
    Messages:
    154
    Likes Received:
    30
    Thanks!
     
  17. heyderx

    heyderx New Member

    Joined:
    Jun 21, 2016
    Messages:
    7
    Likes Received:
    0
    Thanks!
     
  18. kin

    kin Member

    Joined:
    Dec 2, 2015
    Messages:
    65
    Likes Received:
    2
    Thanks!
     
  19. tapions

    tapions Well-Known Member

    Joined:
    Aug 30, 2016
    Messages:
    1,010
    Likes Received:
    89
    gracias
     
  20. mcslimshady

    mcslimshady Well-Known Member

    Joined:
    Jun 20, 2016
    Messages:
    1,820
    Likes Received:
    46
    thanks man.