Coldplay - Viva La Vida (MUZU-720p-thankstome)

Discussion in 'Music Videos' started by thankstome, Jan 12, 2016.

  1. thankstome

    thankstome Well-Known Member

    Joined:
    Feb 6, 2014
    Messages:
    940
    Likes Received:
    1,327
    [​IMG]
    [​IMG]
    [​IMG]
    Code:
    Format                                   : MPEG-4
    Format profile                           : Base Media
    Codec ID                                 : isom
    File size                                : 96.3 MiB
    Duration                                 : 4mn 3s
    Overall bit rate mode                    : Variable
    Overall bit rate                         : 3 323 Kbps
    Encoded date                             : UTC 2015-08-15 06:40:21
    Tagged date                              : UTC 2015-08-15 06:40:21
    
    Video
    ID                                       : 1
    Format                                   : AVC
    Format/Info                              : Advanced Video Codec
    Format profile                           : Main@L3.1
    Format settings, CABAC                   : Yes
    Format settings, ReFrames                : 3 frames
    Codec ID                                 : avc1
    Codec ID/Info                            : Advanced Video Coding
    Duration                                 : 4mn 3s
    Bit rate                                 : 3 131 Kbps
    Maximum bit rate                         : 3 800 Kbps
    Width                                    : 960 pixels
    Height                                   : 720 pixels
    Display aspect ratio                     : 4:3
    Frame rate mode                          : Constant
    Frame rate                               : 25.000 fps
    Color space                              : YUV
    Chroma subsampling                       : 4:2:0
    Bit depth                                : 8 bits
    Scan type                                : Progressive
    Bits/(Pixel*Frame)                       : 0.181
    Stream size                              : 90.7 MiB (94%)
    Writing library                          : Zencoder Video Encoding System
    Encoded date                             : UTC 2015-08-15 06:38:45
    Tagged date                              : UTC 2015-08-15 06:40:21
    
    Audio
    ID                                       : 2
    Format                                   : AAC
    Format/Info                              : Advanced Audio Codec
    Format profile                           : LC
    Codec ID                                 : 40
    Duration                                 : 4mn 3s
    Bit rate mode                            : Variable
    Bit rate                                 : 192 Kbps
    Maximum bit rate                         : 224 Kbps
    Channel(s)                               : 2 channels
    Channel positions                        : Front: L R
    Sampling rate                            : 48.0 KHz
    Compression mode                         : Lossy
    Stream size                              : 5.55 MiB (6%)
    Encoded date                             : UTC 2015-08-15 06:37:28
    Tagged date                              : UTC 2015-08-15 06:40:21
    
    Hidden Content:
    You must reply before you can see the hidden data contained here.
     
    Last edited: Feb 14, 2016
    Lasanha, matucho, curg and 1 other person like this.
  2. Loading...


  3. Hen2302

    Hen2302 Member

    Joined:
    Feb 4, 2014
    Messages:
    410
    Likes Received:
    7
    thanks a lot
     
  4. andreamonger

    andreamonger Well-Known Member

    Joined:
    May 16, 2015
    Messages:
    1,389
    Likes Received:
    220
    Yess please post all of them
     
  5. andreamonger

    andreamonger Well-Known Member

    Joined:
    May 16, 2015
    Messages:
    1,389
    Likes Received:
    220
    Please!!! I'm sure people will download them
     
  6. Bruno

    Bruno Well-Known Member

    Joined:
    Nov 3, 2013
    Messages:
    1,748
    Likes Received:
    128
    yes please , search for them , if can so many thx
     
  7. firewolf05

    firewolf05 Member

    Joined:
    Jan 11, 2016
    Messages:
    437
    Likes Received:
    3
  8. griszasobb11

    griszasobb11 Member

    Joined:
    Feb 16, 2016
    Messages:
    64
    Likes Received:
    2
  9. larzpolanzki

    larzpolanzki Member

    Joined:
    Feb 10, 2014
    Messages:
    601
    Likes Received:
    21
    thanks thanks thanks for video :love::love::love::love::love:
     
  10. crispicazzo

    crispicazzo Active Member

    Joined:
    Dec 19, 2015
    Messages:
    429
    Likes Received:
    30
    Thank you!
     
  11. gayway

    gayway Active Member

    Joined:
    Mar 10, 2016
    Messages:
    987
    Likes Received:
    72
    Thank You!
     
  12. Vinny

    Vinny Well-Known Member

    Joined:
    Dec 26, 2013
    Messages:
    3,887
    Likes Received:
    50
    Thanks! ;-D
     
  13. carlos024333

    carlos024333 Active Member

    Joined:
    Mar 28, 2016
    Messages:
    710
    Likes Received:
    29
  14. Dyoggo

    Dyoggo Member

    Joined:
    May 14, 2014
    Messages:
    743
    Likes Received:
    17
    thanks
     
  15. Dyoggo

    Dyoggo Member

    Joined:
    May 14, 2014
    Messages:
    743
    Likes Received:
    17
    thanks
     
  16. khan

    khan Well-Known Member

    Joined:
    May 11, 2014
    Messages:
    1,455
    Likes Received:
    105
    VERY NICE
     
  17. leonardo

    leonardo Member

    Joined:
    May 9, 2014
    Messages:
    652
    Likes Received:
    6
    thank you
     
  18. jasonvol

    jasonvol Member

    Joined:
    Jan 27, 2016
    Messages:
    433
    Likes Received:
    15
    thanks for this
     
  19. xmgt

    xmgt Member

    Joined:
    May 21, 2016
    Messages:
    381
    Likes Received:
    22
    THANK YOU
     
  20. tsieniek

    tsieniek Member

    Joined:
    May 15, 2016
    Messages:
    159
    Likes Received:
    4
  21. ojwefifvyh

    ojwefifvyh Member

    Joined:
    May 30, 2016
    Messages:
    80
    Likes Received:
    0