Coldplay - The Scientist (MUZU-720p-thankstome)

Discussion in 'Music Videos' started by thankstome, Feb 13, 2016.

  1. thankstome

    thankstome Well-Known Member

    Joined:
    Feb 6, 2014
    Messages:
    971
    Likes Received:
    1,351
    [​IMG]
    [​IMG]
    [​IMG]
    Code:
    Format                                   : MPEG-4
    Format profile                           : Base Media
    Codec ID                                 : isom
    File size                                : 110 MiB
    Duration                                 : 4mn 27s
    Overall bit rate mode                    : Variable
    Overall bit rate                         : 3 440 Kbps
    Encoded date                             : UTC 2015-06-10 00:00:22
    Tagged date                              : UTC 2015-06-10 00:00:22
    
    Video
    ID                                       : 1
    Format                                   : AVC
    Format/Info                              : Advanced Video Codec
    Format profile                           : Main@L3.1
    Format settings, CABAC                   : Yes
    Format settings, ReFrames                : 3 frames
    Codec ID                                 : avc1
    Codec ID/Info                            : Advanced Video Coding
    Duration                                 : 4mn 27s
    Bit rate                                 : 3 247 Kbps
    Maximum bit rate                         : 3 916 Kbps
    Width                                    : 1 280 pixels
    Height                                   : 696 pixels
    Display aspect ratio                     : 1.85:1
    Frame rate mode                          : Constant
    Frame rate                               : 25.000 fps
    Color space                              : YUV
    Chroma subsampling                       : 4:2:0
    Bit depth                                : 8 bits
    Scan type                                : Progressive
    Bits/(Pixel*Frame)                       : 0.146
    Stream size                              : 103 MiB (94%)
    Writing library                          : Zencoder Video Encoding System
    Encoded date                             : UTC 2015-06-09 23:58:45
    Tagged date                              : UTC 2015-06-10 00:00:23
    
    Audio
    ID                                       : 2
    Format                                   : AAC
    Format/Info                              : Advanced Audio Codec
    Format profile                           : LC
    Codec ID                                 : 40
    Duration                                 : 4mn 27s
    Bit rate mode                            : Variable
    Bit rate                                 : 192 Kbps
    Maximum bit rate                         : 218 Kbps
    Channel(s)                               : 2 channels
    Channel positions                        : Front: L R
    Sampling rate                            : 48.0 KHz
    Compression mode                         : Lossy
    Stream size                              : 6.10 MiB (6%)
    Encoded date                             : UTC 2015-06-09 23:58:01
    Tagged date                              : UTC 2015-06-10 00:00:23
    
    Hidden Content:
    You must reply before you can see the hidden data contained here.
     
    snake1, MasterDemon, matucho and 3 others like this.
  2. Loading...


  3. Bruno

    Bruno Well-Known Member

    Joined:
    Nov 3, 2013
    Messages:
    1,807
    Likes Received:
    130
    many thx for this
     
  4. adam dark

    adam dark Video Music Lover <3 V . I . P.

    Joined:
    Dec 5, 2013
    Messages:
    2,663
    Likes Received:
    5,683
  5. adam dark

    adam dark Video Music Lover <3 V . I . P.

    Joined:
    Dec 5, 2013
    Messages:
    2,663
    Likes Received:
    5,683
  6. andreamonger

    andreamonger Well-Known Member

    Joined:
    May 16, 2015
    Messages:
    1,397
    Likes Received:
    224
    Wow thanksss
     
  7. winebaldo

    winebaldo Member

    Joined:
    Oct 19, 2015
    Messages:
    271
    Likes Received:
    13
    Thank you
     
  8. andreamonger

    andreamonger Well-Known Member

    Joined:
    May 16, 2015
    Messages:
    1,397
    Likes Received:
    224
    Please post trouble, and in my place *.*
     
  9. firewolf05

    firewolf05 Member

    Joined:
    Jan 11, 2016
    Messages:
    440
    Likes Received:
    3
  10. Amy Winehouse

    Amy Winehouse Well-Known Member

    Joined:
    Dec 15, 2015
    Messages:
    747
    Likes Received:
    2,142
    t
    Thanks
     
  11. lucash

    lucash Member

    Joined:
    Nov 25, 2013
    Messages:
    357
    Likes Received:
    22
    thank you
     
  12. enzogyn

    enzogyn Member

    Joined:
    Dec 2, 2015
    Messages:
    279
    Likes Received:
    45
    muito obrigado
     
  13. griszasobb11

    griszasobb11 Member

    Joined:
    Feb 16, 2016
    Messages:
    64
    Likes Received:
    2
  14. ManuelLopez5

    ManuelLopez5 Member

    Joined:
    Jun 7, 2014
    Messages:
    531
    Likes Received:
    20
    thank you :)
     
  15. alberto piper naro

    alberto piper naro BETOHACKER

    Joined:
    Jul 4, 2015
    Messages:
    689
    Likes Received:
    262
  16. Anjolicious

    Anjolicious Well-Known Member

    Joined:
    Jun 17, 2015
    Messages:
    637
    Likes Received:
    265
  17. Anjolicious

    Anjolicious Well-Known Member

    Joined:
    Jun 17, 2015
    Messages:
    637
    Likes Received:
    265
  18. larzpolanzki

    larzpolanzki Member

    Joined:
    Feb 10, 2014
    Messages:
    601
    Likes Received:
    21
    thanks for video :girl::love::girl:
     
  19. Josue Carminatti

    Josue Carminatti Member

    Joined:
    Jul 19, 2015
    Messages:
    431
    Likes Received:
    14
  20. crispicazzo

    crispicazzo Active Member

    Joined:
    Dec 19, 2015
    Messages:
    436
    Likes Received:
    31
    Thank you so much!
     
  21. TrendMusic

    TrendMusic Well-Known Member

    Joined:
    Oct 7, 2013
    Messages:
    1,727
    Likes Received:
    161