Coldplay Feat. Rihanna - Princess Of China (VH1HD-1080i-DD5.1-CELOBRAZiL)

Discussion in 'VH1 HD' started by Snorom6, Jun 7, 2016.

  1. Snorom6

    Snorom6 Well-Known Member Uploader

    Joined:
    Dec 17, 2015
    Messages:
    4,246
    Likes Received:
    3,261
    Coldplay Feat. Rihanna - Princess Of China (VH1HD-1080i-DD5.1-CELOBRAZiL)


    [​IMG]


    Code:
    General
    ID                             : 1 (0x1)
    Complete name                  : Coldplay Feat. Rihanna - Princess Of China (VH1HD-1080i-DD5.1-CELOBRAZiL).ts
    Format                         : MPEG-TS
    File size                      : 242 MiB
    Duration                       : 3mn 34s
    Overall bit rate mode          : Variable
    Overall bit rate               : 9 437 Kbps
    
    Video
    ID                             : 5408 (0x1520)
    Menu ID                        : 1 (0x1)
    Format                         : AVC
    Format/Info                    : Advanced Video Codec
    Format profile                 : [email protected]
    Format settings, CABAC         : Yes
    Format settings, ReFrames      : 2 frames
    Codec ID                       : 27
    Duration                       : 3mn 34s
    Bit rate                       : 8 583 Kbps
    Width                          : 1 920 pixels
    Height                         : 1 080 pixels
    Display aspect ratio           : 16:9
    Frame rate                     : 29.970 fps
    Color space                    : YUV
    Chroma subsampling             : 4:2:0
    Bit depth                      : 8 bits
    Scan type                      : MBAFF
    Scan order                     : Top Field First
    Bits/(Pixel*Frame)             : 0.138
    Stream size                    : 220 MiB (91%)
    Color range                    : Limited
    Color primaries                : BT.709
    Transfer characteristics       : BT.709
    Matrix coefficients            : BT.709
    
    Audio
    ID                             : 5409 (0x1521)
    Menu ID                        : 1 (0x1)
    Format                         : AC-3
    Format/Info                    : Audio Coding 3
    Mode extension                 : CM (complete main)
    Format settings, Endianness    : Big
    Codec ID                       : 129
    Duration                       : 3mn 34s
    Bit rate mode                  : Constant
    Bit rate                       : 384 Kbps
    Channel(s)                     : 6 channels
    Channel positions              : Front: L C R, Side: L R, LFE
    Sampling rate                  : 48.0 KHz
    Compression mode               : Lossy
    Stream size                    : 9.83 MiB (4%)
    Language                       : English
    
    

    Hidden Content:
    You must either reply or click 'Like' to see the hidden information contained here.
    Hidden Content:
    You must either reply or click 'Like' to see the hidden information contained here.
     
    hanshermann and revilo18 like this.
  2. Loading...


  3. Jrec

    Jrec Member

    Joined:
    May 11, 2016
    Messages:
    576
    Likes Received:
    22
    Thanks