CC Coldplay Feat. Beyoncé - Hymn For The Weekend (M6HD-1080i-DD5.1-art-v-k) [CC]-HDMania

Discussion in 'M6 HD' started by art-v-k, Feb 6, 2016.

  1. art-v-k

    art-v-k Well-Known Member Capper

    Joined:
    Nov 1, 2013
    Messages:
    223
    Likes Received:
    9,668
    Coldplay & Beyonce - Hymn For The Weekend(M6 HD)HDTV-1080i,@rt-v-k.HDMania

    [​IMG] [​IMG] [​IMG] [​IMG] [​IMG] [​IMG]


    Complete name : M6\Coldplay & Beyonce - Hymn For The Weekend(M6 HD)HDTV-1080i,@rt-v-k.HDMania.ts
    Format : MPEG-TS
    File size : 249 MiB
    Duration : 4mn 17s
    Overall bit rate mode : Variable
    Overall bit rate : 8 110 Kbps

    Video
    ID : 2020 (0x7E4)
    Menu ID : 202 (0xCA)
    Format : AVC
    Format/Info : Advanced Video Codec
    Format profile : High@L4
    Format settings, CABAC : Yes
    Format settings, ReFrames : 4 frames
    Codec ID : 27
    Duration : 4mn 17s
    Bit rate : 7 192 Kbps
    Width : 1 920 pixels
    Height : 1 080 pixels
    Display aspect ratio : 16:9
    Frame rate : 25.000 fps
    Standard : Component
    Color space : YUV
    Chroma subsampling : 4:2:0
    Bit depth : 8 bits
    Scan type : MBAFF
    Scan type, store method : Interleaved fields
    Scan order : Top Field First
    Bits/(Pixel*Frame) : 0.139
    Stream size : 220 MiB (89%)
    Color range : Limited
    Color primaries : BT.709
    Transfer characteristics : BT.709
    Matrix coefficients : BT.709

    Audio #1
    ID : 2021 (0x7E5)
    Menu ID : 202 (0xCA)
    Format : AC-3
    Format/Info : Audio Coding 3
    Mode extension : CM (complete main)
    Format settings, Endianness : Big
    Codec ID : 6
    Duration : 4mn 17s
    Bit rate mode : Constant
    Bit rate : 384 Kbps
    Channel(s) : 6 channels
    Channel positions : Front: L C R, Side: L R, LFE
    Sampling rate : 48.0 KHz
    Frame rate : 31.250 fps (1536 spf)
    Compression mode : Lossy
    Delay relative to video : -52ms
    Stream size : 11.8 MiB (5%)
    Language : French

    Audio #2
    ID : 2022 (0x7E6)
    Menu ID : 202 (0xCA)
    Format : AC-3
    Format/Info : Audio Coding 3
    Mode extension : CM (complete main)
    Format settings, Endianness : Big
    Codec ID : 6
    Duration : 4mn 17s
    Bit rate mode : Constant
    Bit rate : 128 Kbps
    Channel(s) : 2 channels
    Channel positions : Front: L R
    Sampling rate : 48.0 KHz
    Frame rate : 31.250 fps (1536 spf)
    Compression mode : Lossy
    Delay relative to video : 12ms
    Stream size : 3.93 MiB (2%)
    Language : qad

    Text
    ID : 2220 (0x8AC)
    Menu ID : 202 (0xCA)
    Format : DVB Subtitle
    Codec ID : 6
    Duration : 4mn 15s
    Delay relative to video : 1s 160ms
    Language : French
    **************** ************************** *******************
    Hidden Content:
    You must either reply or click 'Like' to see the hidden information contained here.

     
  2. Loading...


  3. Dreamer

    Dreamer Lana Del Rey ♥ Capper V . I . P. Uploader

    Joined:
    Dec 4, 2014
    Messages:
    2,594
    Likes Received:
    2,911
    Thank you so much! :)
     
  4. cooi018

    cooi018 Member

    Joined:
    Nov 23, 2015
    Messages:
    88
    Likes Received:
    8
    Thank you
     
  5. gybr77

    gybr77 Member

    Joined:
    Dec 6, 2015
    Messages:
    32
    Likes Received:
    4
    thank you!
     
  6. rhea

    rhea Well-Known Member

    Joined:
    Jan 6, 2014
    Messages:
    5,871
    Likes Received:
    435
    thank you so much! :)
     
  7. MCTR

    MCTR Active Member

    Joined:
    Feb 23, 2014
    Messages:
    293
    Likes Received:
    35
    thank you so much!
     
  8. dapape

    dapape Member

    Joined:
    Jun 9, 2014
    Messages:
    134
    Likes Received:
    1
    thanks you
     
  9. Joseph

    Joseph Active Member

    Joined:
    Dec 10, 2013
    Messages:
    743
    Likes Received:
    165
    thank you!
     
  10. Sri Malchik

    Sri Malchik Member

    Joined:
    Jun 6, 2014
    Messages:
    60
    Likes Received:
    2
    thank you!
     
  11. Zatimi

    Zatimi Active Member

    Joined:
    Aug 27, 2014
    Messages:
    672
    Likes Received:
    98
    thank you
     
  12. tapions

    tapions Active Member

    Joined:
    Aug 30, 2016
    Messages:
    857
    Likes Received:
    64
    gracias
     
  13. rashka

    rashka Member

    Joined:
    Apr 8, 2014
    Messages:
    206
    Likes Received:
    7
    thank you
     
  14. assxss

    assxss New Member

    Joined:
    Sep 7, 2016
    Messages:
    28
    Likes Received:
    1
    gracias
     
  15. adi449

    adi449 Member

    Joined:
    Sep 25, 2016
    Messages:
    70
    Likes Received:
    6
    dziekuje
     
  16. Jrec

    Jrec Active Member

    Joined:
    May 11, 2016
    Messages:
    635
    Likes Received:
    27
    Thanks
     
  17. e132961

    e132961 Member

    Joined:
    Jan 6, 2017
    Messages:
    114
    Likes Received:
    0
    thanks.