Coldplay - A Sky Full Of Stars (Blu-Ray 1080p)

Discussion in 'BLU-RAY & BD RIP' started by Dreamer, Jan 7, 2016.

  1. Dreamer

    Dreamer Well-Known Member Capper Uploader

    Joined:
    Dec 4, 2014
    Messages:
    2,291
    Likes Received:
    2,118
    Coldplay - A Sky Full Of Stars (Blu-Ray 1080p)

    [​IMG]

    General
    ID : 0 (0x0)
    Complete name : C:\Users\DK\Desktop\[Blu-Ray] Coldplay - A Sky Full Of Stars.m2ts
    Format : BDAV
    Format/Info : Blu-ray Video
    File size : 519 MiB
    Duration : 4mn 13s
    Overall bit rate mode : Variable
    Overall bit rate : 17.2 Mbps
    Maximum Overall bit rate : 48.0 Mbps

    Video
    ID : 4113 (0x1011)
    Menu ID : 1 (0x1)
    Format : AVC
    Format/Info : Advanced Video Codec
    Format profile : [email protected]
    Format settings, CABAC : Yes
    Format settings, ReFrames : 2 frames
    Codec ID : 27
    Duration : 4mn 13s
    Bit rate mode : Variable
    Bit rate : 14.9 Mbps
    Maximum bit rate : 38.2 Mbps
    Width : 1 920 pixels
    Height : 1 080 pixels
    Display aspect ratio : 16:9
    Frame rate : 29.970 fps
    Color space : YUV
    Chroma subsampling : 4:2:0
    Bit depth : 8 bits
    Scan type : MBAFF
    Scan order : Top Field First
    Bits/(Pixel*Frame) : 0.240
    Stream size : 451 MiB (87%)

    Audio
    ID : 4352 (0x1100)
    Menu ID : 1 (0x1)
    Format : PCM
    Format settings, Endianness : Big
    Format settings, Sign : Signed
    Muxing mode : Blu-ray
    Codec ID : 128
    Duration : 4mn 13s
    Bit rate mode : Constant
    Bit rate : 1 536 Kbps
    Channel(s) : 2 channels
    Channel positions : Front: L R
    Sampling rate : 48.0 KHz
    Bit depth : 16 bits
    Stream size : 46.4 MiB (9%)

    [​IMG]MEGA
    Hidden Content:
    You must reply before you can see the hidden data contained here.

     
  2. Loading...


  3. lpplus

    lpplus Well-Known Member

    Joined:
    Sep 28, 2014
    Messages:
    537
    Likes Received:
    717
    Thank you
     
  4. Snorom6

    Snorom6 Well-Known Member Uploader

    Joined:
    Dec 17, 2015
    Messages:
    4,245
    Likes Received:
    3,744
  5. Attention

    Attention Active Member

    Joined:
    Nov 30, 2013
    Messages:
    564
    Likes Received:
    29
    Nice. Thanks.
     
  6. zidris

    zidris Member

    Joined:
    Aug 17, 2014
    Messages:
    127
    Likes Received:
    2
    Coldplay - A Sky Full Of Stars
     
  7. BetaKsi

    BetaKsi Well-Known Member

    Joined:
    Oct 18, 2015
    Messages:
    769
    Likes Received:
    306
    Super)) Thank you))
     
  8. hemunshu

    hemunshu Member

    Joined:
    Feb 12, 2016
    Messages:
    92
    Likes Received:
    1
    vfhgfjgvjmk
     
  9. onediz

    onediz New Member

    Joined:
    Apr 6, 2016
    Messages:
    5
    Likes Received:
    0
    GRACIAS
     
  10. princessrinisyah

    princessrinisyah Member

    Joined:
    Feb 13, 2016
    Messages:
    32
    Likes Received:
    1
    thnnnnkxy
     
  11. shing000

    shing000 Member

    Joined:
    Mar 13, 2016
    Messages:
    578
    Likes Received:
    13
    gracias
     
  12. abdulmajeed004

    abdulmajeed004 New Member

    Joined:
    May 8, 2016
    Messages:
    7
    Likes Received:
    1
  13. multimediafm

    multimediafm Well-Known Member Donor

    Joined:
    Mar 27, 2014
    Messages:
    8,488
    Likes Received:
    352
    Thanks :)
    Coldplay - A Sky Full Of Stars (Blu-Ray 1080p)
     
  14. koko_love

    koko_love Member

    Joined:
    Jun 3, 2015
    Messages:
    291
    Likes Received:
    10
    thank you :)
     
  15. COder-X

    COder-X Member

    Joined:
    Jul 1, 2016
    Messages:
    40
    Likes Received:
    0
    thanxx
     
  16. carlos024333

    carlos024333 Member

    Joined:
    Mar 28, 2016
    Messages:
    185
    Likes Received:
    1
  17. 123

    123 Member

    Joined:
    Jun 22, 2016
    Messages:
    197
    Likes Received:
    3
    thanks
     
  18. marcusbr20

    marcusbr20 Member

    Joined:
    Feb 14, 2016
    Messages:
    339
    Likes Received:
    4
  19. Seerj

    Seerj Member

    Joined:
    Apr 12, 2016
    Messages:
    214
    Likes Received:
    2
    tanks
     
  20. Eko Wurdianto

    Eko Wurdianto New Member

    Joined:
    Jul 25, 2016
    Messages:
    6
    Likes Received:
    0
    wonderfull.. thanks
     
  21. JSmoove

    JSmoove Member

    Joined:
    Nov 27, 2013
    Messages:
    57
    Likes Received:
    1
    thanks!