WEB-RiP Coldplay - A Head Full Of Dreams (2018) [1080p AMZN WEB-DL DD5.1]

Discussion in 'Documentaries' started by clublandtiger, Nov 17, 2018.

  1. clublandtiger

    clublandtiger Well-Known Member Uploader Donor

    Joined:
    Apr 4, 2016
    Messages:
    756
    Likes Received:
    3,942
    [​IMG]
    [​IMG]
    [​IMG]




    Complete name : D:\Coldplay.A.Head.Full.of.Dreams.2018.1080p.AMZN.WEBRip.DDP5.1.x264-NTG\Coldplay.A.Head.Full.of.Dreams.2018.1080p.AMZN.WEB-DL.DDP5.1.H.264-NTG.mkv
    Format : Matroska
    Format version : Version 4 / Version 2
    File size : 8.77 GiB
    Duration : 1 h 44 min
    Overall bit rate : 12.0 Mb/s
    Encoded date : UTC 2018-11-16 00:21:05
    Writing application : mkvmerge v21.0.0 ('Tardigrades Will Inherit The Earth') 64-bit
    Writing library : libebml v1.3.5 + libmatroska v1.4.8
    Video
    ID : 1
    Format : AVC
    Format/Info : Advanced Video Codec
    Format profile : High@L4
    Format settings : CABAC / 4 Ref Frames
    Format settings, CABAC : Yes
    Format settings, RefFrames : 4 frames
    Codec ID : V_MPEG4/ISO/AVC
    Duration : 1 h 44 min
    Bit rate : 11.4 Mb/s
    Width : 1 920 pixels
    Height : 1 080 pixels
    Display aspect ratio : 16:9
    Frame rate mode : Constant
    Frame rate : 23.976 (24000/1001) FPS
    Color space : YUV
    Chroma subsampling : 4:2:0
    Bit depth : 8 bits
    Scan type : Progressive
    Bits/(Pixel*Frame) : 0.228
    Stream size : 8.30 GiB (95%)
    Default : Yes
    Forced : No
    Color range : Limited
    Color primaries : BT.709
    Transfer characteristics : BT.709
    Matrix coefficients : BT.709
    Audio
    ID : 2
    Format : E-AC-3
    Format/Info : Enhanced Audio Coding 3
    Codec ID : A_EAC3
    Duration : 1 h 44 min
    Bit rate mode : Constant
    Bit rate : 640 kb/s
    Channel(s) : 6 channels
    Channel positions : Front: L C R, Side: L R, LFE
    Sampling rate : 48.0 kHz
    Frame rate : 187.500 FPS (256 SPF)
    Compression mode : Lossy
    Stream size : 479 MiB (5%)
    Language : English
    Service kind : Complete Main
    Default : Yes
    Forced : No

    Download Server : MEGA

    Hidden Content:
    You must reply before you can see the hidden data contained here.





     
    Last edited: Dec 3, 2018
  2. Loading...


  3. channel003

    channel003 Well-Known Member

    Joined:
    Nov 23, 2013
    Messages:
    792
    Likes Received:
    437
    Thank you so much!
     
  4. SmartBeens

    SmartBeens Active Member

    Joined:
    Oct 5, 2014
    Messages:
    989
    Likes Received:
    93
    Nice >>> Thanks
     
  5. qweeenbey

    qweeenbey Active Member

    Joined:
    Sep 30, 2017
    Messages:
    543
    Likes Received:
    30
    thank you!!!!!
     
  6. xpeehdroox

    xpeehdroox New Member

    Joined:
    Mar 25, 2017
    Messages:
    22
    Likes Received:
    1
    thanks
     
  7. raphael-fp

    raphael-fp Member

    Joined:
    Jan 19, 2017
    Messages:
    99
    Likes Received:
    5
    thank you
     
  8. mxyloto

    mxyloto New Member

    Joined:
    Dec 11, 2015
    Messages:
    5
    Likes Received:
    1
    thank you
     
  9. jempolgede

    jempolgede Active Member

    Joined:
    Dec 30, 2013
    Messages:
    417
    Likes Received:
    193
    Thank you!
     
  10. murayan_k

    murayan_k Active Member

    Joined:
    Dec 12, 2016
    Messages:
    196
    Likes Received:
    45
  11. johnz

    johnz New Member

    Joined:
    Nov 18, 2018
    Messages:
    1
    Likes Received:
    0
    Thank you!
     
  12. MSky73

    MSky73 New Member

    Joined:
    Sep 29, 2016
    Messages:
    13
    Likes Received:
    0
    thank you
     
  13. tf135

    tf135 Well-Known Member

    Joined:
    Nov 14, 2014
    Messages:
    4,031
    Likes Received:
    221
    thanks
     
  14. Arifillah

    Arifillah [REQ]

    Joined:
    Oct 29, 2017
    Messages:
    1,225
    Likes Received:
    44
  15. rkgmade

    rkgmade Well-Known Member

    Joined:
    Sep 29, 2016
    Messages:
    2,016
    Likes Received:
    115
    thanks
     
  16. xabieroyo

    xabieroyo Active Member

    Joined:
    May 30, 2017
    Messages:
    192
    Likes Received:
    123
    thank you so much
     
  17. Saint

    Saint WHY HELLO WORLD?

    Joined:
    Sep 22, 2014
    Messages:
    1,255
    Likes Received:
    114
    Thank you!
     
  18. Kilgore

    Kilgore New Member

    Joined:
    Oct 2, 2016
    Messages:
    24
    Likes Received:
    0
    Merci...
     
  19. nachostripped

    nachostripped Well-Known Member

    Joined:
    Feb 5, 2015
    Messages:
    631
    Likes Received:
    321
  20. ScreamKwinz

    ScreamKwinz Member

    Joined:
    Sep 28, 2017
    Messages:
    192
    Likes Received:
    16
  21. penevolador

    penevolador New Member

    Joined:
    Nov 18, 2018
    Messages:
    1
    Likes Received:
    0