Ciara - Like A Boy (M6MUSICHD-1080i-DD2.0-Djodjara)-HDMania

Discussion in 'M6 HD' started by Djodjara, Jun 18, 2015.

  1. Djodjara

    Djodjara Gwen Fan Capper

    Joined:
    Sep 6, 2014
    Messages:
    895
    Likes Received:
    1,704
    Ciara - Like A Boy (M6 Music-1080i-Djodjara)-HDMania

    [​IMG]
    [​IMG]

    General:
    ID : 1 (0x1)
    Format : MPEG-TS
    File size : 144 MiB
    Duration : 3mn 55s
    Overall bit rate mode : Variable
    Overall bit rate : 5 150 Kbps

    Video:
    ID : 310 (0x136)
    Menu ID : 1 (0x1)
    Format : AVC
    Format/Info : Advanced Video Codec
    Format profile : High@L4.0
    Format settings, CABAC : Yes
    Format settings, ReFrames : 4 frames
    Codec ID : 27
    Duration : 3mn 55s
    Bit rate : 4 701 Kbps
    Width : 1 920 pixels
    Height : 1 080 pixels
    Display aspect ratio : 16:9
    Frame rate : 25.000 fps
    Standard : Component
    Color space : YUV
    Chroma subsampling : 4:2:0
    Bit depth : 8 bits
    Scan type : MBAFF
    Scan order : Top Field First
    Bits/(Pixel*Frame) : 0.091
    Stream size : 132 MiB (91%)
    Color primaries : BT.709
    Transfer characteristics : BT.709
    Matrix coefficients : BT.709
    Color range : Limited

    Audio:
    ID : 321 (0x141)
    Menu ID : 1 (0x1)
    Format : AC-3
    Format/Info : Audio Coding 3
    Mode extension : CM (complete main)
    Format settings, Endianness : Big
    Codec ID : 6
    Duration : 3mn 55s
    Bit rate mode : Constant
    Bit rate : 192 Kbps
    Channel(s) : 2 channels
    Channel positions : Front: L R
    Sampling rate : 48.0 KHz
    Bit depth : 16 bits
    Compression mode : Lossy
    Stream size : 5.39 MiB (4%)
    Language : French

    Hidden Content:
    You must reply before you can see the hidden data contained here.
     
    lyana94, Thassyo, Vinny and 3 others like this.
  2. Loading...


  3. 777josem

    777josem ProRes 1080p LPCM

    Joined:
    Sep 1, 2014
    Messages:
    3,737
    Likes Received:
    3,279
    Thank you!
     
  4. rhea

    rhea Well-Known Member

    Joined:
    Jan 6, 2014
    Messages:
    7,673
    Likes Received:
    965
    thank you so much :)
     
  5. GHN

    GHN Member

    Joined:
    Oct 27, 2014
    Messages:
    568
    Likes Received:
    17
    thank you
     
  6. franklele

    franklele Well-Known Member

    Joined:
    Nov 11, 2013
    Messages:
    2,351
    Likes Received:
    141
    thank you very much
     
  7. Crusha

    Crusha Well-Known Member Capper V . I . P.

    Joined:
    Oct 15, 2014
    Messages:
    2,358
    Likes Received:
    2,796
    thank you very much!!
     
  8. 江雨燃双鱼

    江雨燃双鱼 Active Member

    Joined:
    Apr 5, 2014
    Messages:
    614
    Likes Received:
    45
    thank you very much!!
     
  9. Danielcha

    Danielcha Member

    Joined:
    Sep 20, 2014
    Messages:
    154
    Likes Received:
    6
    Thanks so much
     
  10. Vinny

    Vinny Well-Known Member

    Joined:
    Dec 26, 2013
    Messages:
    3,813
    Likes Received:
    45
    Thank U!
     
  11. Thassyo

    Thassyo Well-Known Member

    Joined:
    Oct 9, 2013
    Messages:
    2,763
    Likes Received:
    1,236
    THANK YOU
     
  12. Ramon.Zod

    Ramon.Zod Member

    Joined:
    Mar 31, 2014
    Messages:
    76
    Likes Received:
    10
    thanks man very nice video
     
  13. DETOX

    DETOX I'm so sick of this fake love ♫ ❤️ V . I . P. Uploader

    Joined:
    Feb 20, 2014
    Messages:
    4,627
    Likes Received:
    38,595
    Thank you so much!
     
  14. umisea

    umisea Member

    Joined:
    Mar 14, 2014
    Messages:
    117
    Likes Received:
    3
    Thank you
     
  15. MaggieS

    MaggieS Well-Known Member

    Joined:
    Sep 19, 2014
    Messages:
    1,059
    Likes Received:
    55
    TNX U
     
  16. bambyche

    bambyche Member

    Joined:
    Jul 14, 2016
    Messages:
    33
    Likes Received:
    1
    thank
     
  17. MannySims

    MannySims New Member

    Joined:
    Aug 11, 2016
    Messages:
    20
    Likes Received:
    0
  18. badine82

    badine82 Member

    Joined:
    Oct 24, 2015
    Messages:
    272
    Likes Received:
    9
  19. aliiharis

    aliiharis New Member

    Joined:
    Jan 8, 2017
    Messages:
    21
    Likes Received:
    0
    ciara love
     
  20. bugmenot

    bugmenot Member

    Joined:
    Nov 17, 2016
    Messages:
    271
    Likes Received:
    7
    ciara
    thanx
     
  21. hanshermann

    hanshermann Well-Known Member Uploader

    Joined:
    Aug 24, 2016
    Messages:
    6,115
    Likes Received:
    8,376
    wahts taht