Ciara - And I (Palladia 1080i)

Discussion in 'PALLADIA' started by hd1026, Sep 19, 2017.

  1. hd1026

    hd1026 Member Donor

    Joined:
    Jul 31, 2017
    Messages:
    50
    Likes Received:
    11
    [​IMG]

    General
    Complete name : E:\HD MV\Ciara - And I (Palladia 1080i-CDMan).mpeg
    Format : MPEG-PS
    File size : 476 MiB
    Duration : 3 min 57 s
    Overall bit rate mode : Constant
    Overall bit rate : 16.8 Mb/s
    Law rating : TV-PG

    Video
    ID : 224 (0xE0)
    Format : MPEG Video
    Format version : Version 2
    Format profile : [email protected]
    Format settings, BVOP : Yes
    Format settings, Matrix : Custom
    Format settings, GOP : M=2, N=14
    Duration : 3 min 57 s
    Bit rate mode : Constant
    Bit rate : 16.1 Mb/s
    Maximum bit rate : 38.8 Mb/s
    Width : 1 920 pixels
    Height : 1 080 pixels
    Display aspect ratio : 16:9
    Frame rate : 29.970 (30000/1001) FPS
    Standard : Component
    Color space : YUV
    Chroma subsampling : 4:2:0
    Bit depth : 8 bits
    Compression mode : Lossy
    Bits/(Pixel*Frame) : 0.259
    Time code of first frame : 00:00:00:00
    Time code source : Group of pictures header
    GOP, Open/Closed : Open
    GOP, Open/Closed of first f : Closed
    Stream size : 456 MiB (96%)
    Color primaries : BT.709
    Transfer characteristics : BT.709
    Matrix coefficients : BT.709

    Audio
    ID : 189 (0xBD)-128 (0x80)
    Format : AC-3
    Format/Info : Audio Coding 3
    Format settings, Endianness : Big
    Muxing mode : DVD-Video
    Duration : 3 min 57 s
    Bit rate mode : Constant
    Bit rate : 384 kb/s
    Channel(s) : 2 channels
    Channel positions : Front: L R
    Sampling rate : 48.0 kHz
    Frame rate : 31.250 FPS (1536 SPF)
    Bit depth : 16 bits
    Compression mode : Lossy
    Stream size : 10.9 MiB (2%)
    Service kind : Complete Main

    Text #1
    ID : 224 (0xE0)-CC1
    Format : EIA-608
    Muxing mode : A/53 / DTVCC Transport
    Muxing mode, more info : Muxed in Video #1
    Duration : 3 min 57 s
    Bit rate mode : Constant
    Stream size : 0.00 Byte (0%)
    CaptionServiceName : CC1

    Text #2
    ID : 224 (0xE0)-1
    Format : EIA-708
    Muxing mode : A/53 / DTVCC Transport
    Muxing mode, more info : Muxed in Video #1
    Duration : 3 min 57 s
    Bit rate mode : Constant
    Stream size : 0.00 Byte (0%)

    Download

    Hidden Content:
    You must reply before you can see the hidden data contained here.
     
    Last edited: Sep 19, 2017
  2. Loading...


  3. CharmedDream

    CharmedDream Boys play with Toys and Girls play with Boys

    Joined:
    Feb 19, 2017
    Messages:
    254
    Likes Received:
    172
  4. valtersc

    valtersc Active Member

    Joined:
    Nov 19, 2014
    Messages:
    262
    Likes Received:
    201
    Thanks!
     
  5. GuruPitka

    GuruPitka Member

    Joined:
    Apr 3, 2014
    Messages:
    395
    Likes Received:
    9
  6. zuluka

    zuluka Member

    Joined:
    Jul 9, 2016
    Messages:
    848
    Likes Received:
    13
    thanks
     
  7. Tommyboy

    Tommyboy Active Member

    Joined:
    Oct 23, 2016
    Messages:
    782
    Likes Received:
    29
    G.Tanks
     
  8. ulygatore

    ulygatore Well-Known Member

    Joined:
    Jun 29, 2017
    Messages:
    1,126
    Likes Received:
    54
  9. allynat

    allynat Member

    Joined:
    Dec 25, 2017
    Messages:
    367
    Likes Received:
    6
    Thank you
     
  10. klodrik

    klodrik Member

    Joined:
    May 29, 2017
    Messages:
    742
    Likes Received:
    18
    Thanks