Ciara - 1,2 Step (feat.Missy Elliott) (VIVAHD-1080i-DD2.0-Djodjara)-HDMania

Discussion in 'VIVA HD' started by Djodjara, Sep 14, 2014.

  1. Djodjara

    Djodjara Gwen Fan Capper

    Joined:
    Sep 6, 2014
    Messages:
    732
    Likes Received:
    1,204
    Ciara - 1,2 Step (feat.Missy Elliott) (VIVA HD 1080i - Djodjara)

    [​IMG]
    [​IMG]
    [​IMG]
    [​IMG]

    General:
    ID : 95 (0x5F)
    Format : MPEG-TS
    File size : 218 MiB
    Duration : 3mn 23s
    Overall bit rate mode : Variable
    Overall bit rate : 8 956 Kbps

    Video:
    ID : 528 (0x210)
    Menu ID : 9067 (0x236B)
    Format : AVC
    Format/Info : Advanced Video Codec
    Format profile : [email protected]
    Format settings, CABAC : Yes
    Format settings, ReFrames : 3 frames
    Codec ID : 27
    Duration : 3mn 24s
    Bit rate : 8 061 Kbps
    Width : 1 920 pixels
    Height : 1 080 pixels
    Display aspect ratio : 16:9
    Frame rate : 25.000 fps
    Standard : Component
    Color space : YUV
    Chroma subsampling : 4:2:0
    Bit depth : 8 bits
    Scan type : Interlaced
    Bits/(Pixel*Frame) : 0.155
    Stream size : 196 MiB (90%)
    Color primaries : BT.709
    Transfer characteristics : BT.709
    Matrix coefficients : BT.709

    Audio #1:
    ID : 529 (0x211)
    Menu ID : 9067 (0x236B)
    Format : MPEG Audio
    Format version : Version 1
    Format profile : Layer 2
    Codec ID : 4
    Duration : 3mn 24s
    Bit rate mode : Constant
    Bit rate : 256 Kbps
    Channel count : 2 channels
    Sampling rate : 48.0 KHz
    Compression mode : Lossy
    Delay relative to video : 139ms
    Stream size : 6.23 MiB (3%)
    Language : German

    Audio #2:
    ID : 539 (0x21B)
    Menu ID : 9067 (0x236B)
    Format : AC-3
    Format/Info : Audio Coding 3
    Mode extension : HI (hearing impaired)
    Format settings, Endianness : Big
    Codec ID : 6
    Duration : 3mn 24s
    Bit rate mode : Constant
    Bit rate : 192 Kbps
    Channel count : 2 channels
    Channel positions : Front: L R
    Sampling rate : 48.0 KHz
    Bit depth : 16 bits
    Compression mode : Lossy
    Delay relative to video : 47ms
    Stream size : 4.67 MiB (2%)
    Language : German

    Hidden Content:
    You must reply before you can see the hidden data contained here.
     
    kendoh, Thassyo, rhea and 1 other person like this.
  2. Escalade1080p

    Escalade1080p Member

    Joined:
    Nov 20, 2013
    Messages:
    495
    Likes Received:
    14
    Thank you so so much!
     
  3. Alvena

    Alvena Member

    Joined:
    Mar 25, 2014
    Messages:
    180
    Likes Received:
    7
  4. franklele

    franklele Well-Known Member

    Joined:
    Nov 11, 2013
    Messages:
    1,926
    Likes Received:
    94
    thank you
     
  5. rhea

    rhea Well-Known Member

    Joined:
    Jan 6, 2014
    Messages:
    5,870
    Likes Received:
    435
    thank you so much :)
     
  6. ytyh

    ytyh Member

    Joined:
    Mar 30, 2014
    Messages:
    432
    Likes Received:
    4
    thanks
     
  7. brian182

    brian182 Well-Known Member

    Joined:
    Oct 14, 2013
    Messages:
    1,718
    Likes Received:
    57
    thanks!
     
  8. Chris

    Chris Member

    Joined:
    Oct 19, 2013
    Messages:
    566
    Likes Received:
    17
    Thank you
     
  9. guillaume

    guillaume Member

    Joined:
    Jan 4, 2014
    Messages:
    234
    Likes Received:
    24
    :)
     
  10. MCTR

    MCTR Active Member

    Joined:
    Feb 23, 2014
    Messages:
    293
    Likes Received:
    35
  11. mehmet

    mehmet Member

    Joined:
    Nov 22, 2013
    Messages:
    140
    Likes Received:
    2
    thanks
     
  12. Crusha

    Crusha Well-Known Member Capper

    Joined:
    Oct 15, 2014
    Messages:
    2,350
    Likes Received:
    2,292
    thank you
     
  13. withcap

    withcap Well-Known Member

    Joined:
    Oct 29, 2013
    Messages:
    1,524
    Likes Received:
    86
    Thanks!
     
  14. xilak

    xilak Member

    Joined:
    May 20, 2014
    Messages:
    710
    Likes Received:
    7
    thanks
     
  15. slill

    slill Member

    Joined:
    Jul 25, 2014
    Messages:
    966
    Likes Received:
    13
    thanks
     
  16. Thassyo

    Thassyo Well-Known Member

    Joined:
    Oct 9, 2013
    Messages:
    2,200
    Likes Received:
    809
    thanks
     
  17. indreams2011

    indreams2011 Member

    Joined:
    Dec 10, 2014
    Messages:
    663
    Likes Received:
    19
     
  18. qashi09

    qashi09 New Member

    Joined:
    Dec 9, 2014
    Messages:
    17
    Likes Received:
    0
  19. Danielcha

    Danielcha Member

    Joined:
    Sep 20, 2014
    Messages:
    74
    Likes Received:
    0
  20. HDMjuzik

    HDMjuzik Member

    Joined:
    Feb 4, 2015
    Messages:
    59
    Likes Received:
    2
    like totally awesome