Chuck Berry - Sweet Little Sixteen (MTVPulse-1080i-DD2.0)-Olgold

Discussion in 'MTV PULSE HD' started by Olgold, Aug 19, 2015.

  1. Olgold

    Olgold Well-Known Member Capper

    Joined:
    Aug 19, 2015
    Messages:
    435
    Likes Received:
    1,484
    [​IMG]
    General
    Format : MPEG-TS
    File size : 146 MiB
    Duration : 3mn 48s
    Overall bit rate mode : Variable
    Overall bit rate : 5 358 Kbps

    Video
    IFormat : AVC
    Format/Info : Advanced Video Codec
    Format profile : [email protected]
    Format settings, CABAC : Yes
    Format settings, ReFrames : 4 frames
    Duration : 3mn 47s
    Bit rate : 4 835 Kbps
    Width : 1 920 pixels
    Height : 1 080 pixels
    Display aspect ratio : 16:9
    Frame rate : 25.000 fps
    Standard : Component
    Color space : YUV
    Chroma subsampling : 4:2:0
    Bit depth : 8 bits
    Scan type : MBAFF
    Scan order : Top Field First
    Bits/(Pixel*Frame) : 0.093
    Stream size : 131 MiB (90%)
    Color range : Limited

    Audio
    Format : AC-3
    Format/Info : Audio Coding 3
    Mode extension : CM (complete main)
    Format settings, Endianness : Big
    Duration : 3mn 48s
    Bit rate mode : Constant
    Bit rate : 256 Kbps
    Channel(s) : 2 channels
    Channel positions : Front: L R
    Sampling rate : 48.0 KHz
    Compression mode : Lossy
    Delay relative to video : 32ms
    Stream size : 6.97 MiB (5%)
    Language : French
    Language, more info : Clean effects

    Hidden Content:
    You must reply before you can see the hidden data contained here.
     
    rhea, CELOBRAZiL and 777josem like this.
  2. Crusha

    Crusha Well-Known Member Capper

    Joined:
    Oct 15, 2014
    Messages:
    2,350
    Likes Received:
    2,212
    thank you
     
  3. 777josem

    777josem Well-Known Member Uploader

    Joined:
    Sep 1, 2014
    Messages:
    2,556
    Likes Received:
    1,380
    Thank you so much!:) I love the classics!
     
  4. rhea

    rhea Well-Known Member

    Joined:
    Jan 6, 2014
    Messages:
    5,541
    Likes Received:
    309
    thanks a lot
     
  5. Flaxdevil

    Flaxdevil Member

    Joined:
    May 25, 2014
    Messages:
    210
    Likes Received:
    6
    thanks much
     
  6. djbunny

    djbunny New Member

    Joined:
    Jul 22, 2016
    Messages:
    25
    Likes Received:
    0
    Thank you
     
  7. tapions

    tapions Active Member

    Joined:
    Aug 30, 2016
    Messages:
    777
    Likes Received:
    58
    gracias
     
  8. jms_salta

    jms_salta Member

    Joined:
    Nov 9, 2014
    Messages:
    33
    Likes Received:
    0
    thank you
     
  9. revilo18

    revilo18 Well-Known Member

    Joined:
    May 26, 2016
    Messages:
    1,482
    Likes Received:
    60
    THANKKK
     
  10. mohamad

    mohamad Member

    Joined:
    Aug 15, 2016
    Messages:
    101
    Likes Received:
    9
    Chuck Berry - Sweet Little Sixteen (MTVPulse-1080i-DD2.0)-Olgold