HDTV Christina Aguilera What A Girl Wants Saturday Night Live S25E16 1080i UPSCALE

Discussion in 'HD Live Performances' started by jeaneyne, Nov 30, 2014.

  1. luismolinanyc

    luismolinanyc Active Member

    Joined:
    May 17, 2016
    Messages:
    867
    Likes Received:
    32
    graciasss
     
  2. rkn9

    rkn9 Well-Known Member

    Joined:
    Jan 9, 2016
    Messages:
    3,732
    Likes Received:
    60
    oleeeeeeeeee
     
  3. andreamonger

    andreamonger Well-Known Member

    Joined:
    May 16, 2015
    Messages:
    1,301
    Likes Received:
    197
    thanks
     
  4. qwert11

    qwert11 Active Member

    Joined:
    Nov 23, 2014
    Messages:
    1,070
    Likes Received:
    16
    thanks
     
  5. Danny82

    Danny82 Well-Known Member

    Joined:
    May 28, 2016
    Messages:
    2,227
    Likes Received:
    590
    Amazing!!! Thank for shared!!!
     
  6. ChristinaAguileraFan

    ChristinaAguileraFan Member

    Joined:
    Sep 24, 2016
    Messages:
    113
    Likes Received:
    3
  7. hanshermann

    hanshermann Well-Known Member Uploader

    Joined:
    Aug 24, 2016
    Messages:
    5,750
    Likes Received:
    7,136
    wahts taht
     
  8. ignacioolivares

    ignacioolivares Member

    Joined:
    May 24, 2017
    Messages:
    190
    Likes Received:
    9
    gracias
     
  9. mvlmoraes

    mvlmoraes Well-Known Member Donor

    Joined:
    Nov 22, 2013
    Messages:
    1,975
    Likes Received:
    311
    THANKS
     
  10. fred

    fred Active Member

    Joined:
    Nov 25, 2015
    Messages:
    402
    Likes Received:
    26
    obrigado
     
  11. uminomiyako

    uminomiyako Well-Known Member

    Joined:
    May 28, 2016
    Messages:
    2,097
    Likes Received:
    85
  12. aaliyah2009

    aaliyah2009 Member

    Joined:
    Feb 2, 2017
    Messages:
    863
    Likes Received:
    16
    thank you
     
  13. Clepsodra

    Clepsodra Active Member

    Joined:
    Jan 15, 2017
    Messages:
    322
    Likes Received:
    35
    Christina.Aguilera.What A Girl Wants Saturday Night Live 2000 S25E16 1080i.UPSCALE.HDTV.DD5.1.MPEG2 .ts


    [​IMG]
    1.ts
    Format : MPEG-TS
    File size : 242 MiB
    Duration : 2mn 13s
    Overall bit rate mode : Variable
    Overall bit rate : 15.2 Mbps
    Video #33
    ID : 33 (0x21)
    Menu ID : 1 (0x1)
    Format : MPEG Video
    Format version : Version 2
    Format profile : Main@High
    Format settings, BVOP : Yes
    Format settings, Matrix : Custom
    Format settings, GOP : Variable
    Codec ID : 2
    Duration : 2mn 13s
    Bit rate mode : Variable
    Bit rate : 14.1 Mbps
    Width : 1 920 pixels
    Height : 1 080 pixels
    Display aspect ratio : 16:9
    Active Format Description : Pillarbox 4:3 image
    Frame rate : 29.970 fps
    Color space : YUV
    Chroma subsampling : 4:2:0
    Bit depth : 8 bits
    Scan type : Interlaced
    Scan order : Top Field First
    Compression mode : Lossy
    Bits/(Pixel*Frame) : 0.226
    Stream size : 223 MiB (92%)
    Audio #36
    ID : 36 (0x24)
    Menu ID : 1 (0x1)
    Format : AC-3
    Format/Info : Audio Coding 3
    Mode extension : CM (complete main)
    Format settings, Endianness : Big
    Codec ID : 129
    Duration : 2mn 13s
    Bit rate mode : Constant
    Bit rate : 384 Kbps
    Channel(s) : 6 channels
    Channel positions : Front: L C R, Side: L R, LFE
    Sampling rate : 48.0 KHz
    Bit depth : 16 bits
    Compression mode : Lossy
    Delay relative to video : -11ms
    Stream size : 6.09 MiB (3%)
    Language : English
    Text #33-CC1
    ID : 33 (0x21)-CC1
    Menu ID : 1 (0x1)
    Format : EIA-608
    Muxing mode : A/53 / DTVCC Transport
    Muxing mode, more info : Muxed in Video #1
    Duration : 2mn 13s
    Bit rate mode : Constant
    Stream size : 0.00 Byte (0%)
    Text #33-1
    ID : 33 (0x21)-1
    Menu ID : 1 (0x1)
    Format : EIA-708
    Muxing mode : A/53 / DTVCC Transport
    Muxing mode, more info : Muxed in Video #1
    Duration : 2mn 13s
    Bit rate mode : Constant
    Stream size : 0.00 Byte (0%)
    Text #33-3
    ID : 33 (0x21)-3
    Menu ID : 1 (0x1)
    Format : EIA-708
    Muxing mode : A/53 / DTVCC Transport
    Muxing mode, more info : Muxed in Video #1
    Duration : 2mn 13s
    Bit rate mode : Constant
    Stream size : 0.00 Byte (0%)

    Hidden Content:
    You must either reply or click 'Like' to see the hidden information contained here.
     
  14. baygonazo00

    baygonazo00 Member

    Joined:
    Saturday
    Messages:
    72
    Likes Received:
    2
    yasss