FEED Christina Aguilera on The Today Show 6-15-2018 FEED 1080i h264 24mbps DTSHDMA 5.1-ALANiS

Discussion in 'HD Live Performances' started by Ransel, Jan 11, 2019.

  1. Ransel

    Ransel Founder Staff Member AdMiN Uploader

    Joined:
    Oct 1, 2013
    Messages:
    1,336
    Likes Received:
    19,553
    Christina Aguilera on The Today Show 6-15-2018
    FEED 1080i h264 24mbps DTSHDMA 5.1-ALANiS

    [​IMG]

    General
    Unique ID : 229995546633027364698819565633339259135 (0xAD0787F1D1D8046FB5BF2C3D0275F8FF)
    Complete name : Christina Aguilera on The Today Show 6-15-2018 FEED 1080i h264 24mbps DTSHDMA 5.1-ALANiS.mkv
    Format : Matroska
    Format version : Version 4 / Version 2
    File size : 3.07 GiB
    Duration : 17 min 50 s
    Overall bit rate : 24.6 Mb/s
    Encoded date : UTC 2018-06-16 00:40:20
    Writing application : mkvmerge v18.0.0 ('Apricity') 64-bit
    Writing library : libebml v1.3.5 + libmatroska v1.4.8

    Video
    ID : 1
    Format : AVC
    Format/Info : Advanced Video Codec
    Format profile : High@L4.1
    Format settings : CABAC / 4 Ref Frames
    Format settings, CABAC : Yes
    Format settings, RefFrames : 4 frames
    Codec ID : V_MPEG4/ISO/AVC
    Duration : 17 min 50 s
    Bit rate : 21.8 Mb/s
    Width : 1 920 pixels
    Height : 1 080 pixels
    Display aspect ratio : 16:9
    Frame rate mode : Variable
    Frame rate : 59.940 (60000/1001) FPS
    Original frame rate : 29.970 (30000/1001) FPS
    Color space : YUV
    Chroma subsampling : 4:2:0
    Bit depth : 8 bits
    Scan type : Interlaced
    Scan type, store method : Separated fields
    Scan order : Top Field First
    Bits/(Pixel*Frame) : 0.176
    Stream size : 2.72 GiB (89%)
    Default : Yes
    Forced : No
    Color range : Full
    Color primaries : BT.709
    Transfer characteristics : BT.709
    Matrix coefficients : BT.709

    Audio #1
    ID : 2
    Format : DTS
    Format/Info : Digital Theater Systems
    Format profile : MA / Core
    Codec ID : A_DTS
    Duration : 17 min 50 s
    Bit rate mode : Variable / Constant
    Bit rate : 2 409 kb/s / 1 509 kb/s
    Channel(s) : 6 channels
    Channel positions : Front: L C R, Side: L R, LFE
    Sampling rate : 48.0 kHz
    Frame rate : 93.750 FPS (512 SPF)
    Bit depth : 16 bits
    Compression mode : Lossless / Lossy
    Stream size : 307 MiB (10%)
    Language : English
    Default : Yes
    Forced : No

    Audio #2
    ID : 3
    Format : MPEG Audio
    Format version : Version 1
    Format profile : Layer 2
    Codec ID : A_MPEG/L2
    Codec ID/Hint : MP2
    Duration : 17 min 50 s
    Bit rate mode : Constant
    Bit rate : 384 kb/s
    Channel(s) : 2 channels
    Sampling rate : 48.0 kHz
    Frame rate : 41.667 FPS (1152 SPF)
    Compression mode : Lossy
    Stream size : 49.0 MiB (2%)
    Language : English
    Default : No
    Forced : No


    Server Download - Mega & Google Drive
    Hidden Content:
    You must reply before you can see the hidden data contained here.
    Credits to Capper: @ALANiS

    :victory:
     
  2. Loading...


  3. edgar

    edgar Well-Known Member V . I . P.

    Joined:
    Oct 12, 2013
    Messages:
    2,232
    Likes Received:
    2,244
    Thank you so so much:love::love::love::love::love:
     
  4. detroit1

    detroit1 Well-Known Member

    Joined:
    Jan 6, 2014
    Messages:
    3,433
    Likes Received:
    488
    thank you
     
  5. sama

    sama Member

    Joined:
    Jul 3, 2017
    Messages:
    39
    Likes Received:
    2
    thanks
     
  6. Amauri Luiz

    Amauri Luiz Well-Known Member

    Joined:
    Jan 14, 2014
    Messages:
    2,182
    Likes Received:
    96
    Thank you so much!
     
  7. xingshouyi

    xingshouyi Well-Known Member

    Joined:
    Jun 27, 2016
    Messages:
    875
    Likes Received:
    1,197
    Thanks for sharing
     
  8. luo518999

    luo518999 Member

    Joined:
    Nov 6, 2013
    Messages:
    222
    Likes Received:
    5
    thank you
     
  9. LoveYouMusic

    LoveYouMusic Member

    Joined:
    Jul 4, 2015
    Messages:
    523
    Likes Received:
    23
    Thank for Can't hold us down
     
  10. rhea

    rhea Well-Known Member

    Joined:
    Jan 6, 2014
    Messages:
    8,993
    Likes Received:
    1,377
    thank you so much
     
  11. tf135

    tf135 Well-Known Member

    Joined:
    Nov 14, 2014
    Messages:
    3,957
    Likes Received:
    221
    thanks
     
  12. pika

    pika Member

    Joined:
    Dec 31, 2018
    Messages:
    62
    Likes Received:
    5
    Thanks
     
  13. antoniojoseguizilini

    antoniojoseguizilini Member

    Joined:
    Dec 2, 2016
    Messages:
    429
    Likes Received:
    24
    thanks
     
  14. Diogof

    Diogof Active Member

    Joined:
    May 22, 2014
    Messages:
    436
    Likes Received:
    120
    Thank youu!
     
  15. peny20

    peny20 Well-Known Member

    Joined:
    Oct 23, 2013
    Messages:
    2,574
    Likes Received:
    70
    thank you
     
  16. Romana

    Romana Active Member

    Joined:
    Oct 26, 2013
    Messages:
    764
    Likes Received:
    116
    thx!!!
     
  17. frisby

    frisby Well-Known Member

    Joined:
    Nov 21, 2015
    Messages:
    1,828
    Likes Received:
    139
    thank u
     
  18. azamusic

    azamusic Well-Known Member Capper

    Joined:
    Dec 6, 2013
    Messages:
    930
    Likes Received:
    273
    thank you
     
  19. n3grox

    n3grox Active Member

    Joined:
    May 25, 2016
    Messages:
    510
    Likes Received:
    29
    thanks
     
  20. usefuldo

    usefuldo Active Member

    Joined:
    Dec 19, 2013
    Messages:
    575
    Likes Received:
    42
    awesome! Thanks!
     
  21. apl3

    apl3 Well-Known Member

    Joined:
    Jun 11, 2017
    Messages:
    1,476
    Likes Received:
    39
    thanks