Christina Aguilera - Not Myself Tonight (PALLADIA-1080i-DD2.0-VideoMan)

Discussion in 'PALLADIA' started by Djodjara, Jun 22, 2015.

  1. Djodjara

    Djodjara Gwen Fan Capper

    Joined:
    Sep 6, 2014
    Messages:
    733
    Likes Received:
    1,204
    Christina Aguilera - Not Myself Tonight (HDTV-1080i-Palladia)

    [​IMG]
    [​IMG]

    Credits to original capper

    General:
    ID : 1 (0x1)
    Format : MPEG-TS
    File size : 317 MiB
    Duration : 3mn 6s
    Overall bit rate mode : Variable
    Overall bit rate : 14.2 Mbps

    Video:
    ID : 4113 (0x1011)
    Menu ID : 1 (0x1)
    Format : AVC
    Format/Info : Advanced Video Codec
    Format profile : [email protected]
    Format settings, CABAC : Yes
    Format settings, ReFrames : 4 frames
    Codec ID : 27
    Duration : 3mn 6s
    Bit rate mode : Variable
    Bit rate : 13.2 Mbps
    Maximum bit rate : 20.0 Mbps
    Width : 1 920 pixels
    Height : 1 080 pixels
    Display aspect ratio : 16:9
    Frame rate : 29.970 fps
    Color space : YUV
    Chroma subsampling : 4:2:0
    Bit depth : 8 bits
    Scan type : Interlaced
    Scan order : Top Field First
    Bits/(Pixel*Frame) : 0.212
    Stream size : 293 MiB (92%)
    Color primaries : BT.709
    Transfer characteristics : BT.709
    Matrix coefficients : BT.709
    Color range : Limited

    Audio:
    ID : 4352 (0x1100)
    Menu ID : 1 (0x1)
    Format : AC-3
    Format/Info : Audio Coding 3
    Mode extension : CM (complete main)
    Format settings, Endianness : Big
    Codec ID : 129
    Duration : 3mn 6s
    Bit rate mode : Constant
    Bit rate : 384 Kbps
    Channel(s) : 2 channels
    Channel positions : Front: L R
    Sampling rate : 48.0 KHz
    Bit depth : 16 bits
    Compression mode : Lossy
    Stream size : 8.55 MiB (3%)
    Language : English

    Hidden Content:
    You must reply before you can see the hidden data contained here.
     
  2. Loading...


  3. 777josem

    777josem Well-Known Member V . I . P. Uploader

    Joined:
    Sep 1, 2014
    Messages:
    3,166
    Likes Received:
    1,754
    :happy:Thank you so much! One more for my collection!
     
    Djodjara likes this.
  4. koko_love

    koko_love Member

    Joined:
    Jun 3, 2015
    Messages:
    437
    Likes Received:
    14
    Thank you :)
     
  5. rhea

    rhea Well-Known Member

    Joined:
    Jan 6, 2014
    Messages:
    5,870
    Likes Received:
    435
    thank you so much
     
  6. mizdot

    mizdot Well-Known Member

    Joined:
    Nov 13, 2014
    Messages:
    1,247
    Likes Received:
    27
    tnx man
     
  7. Calum Hood

    Calum Hood New Member

    Joined:
    Jul 16, 2015
    Messages:
    7
    Likes Received:
    0
     
  8. Calum Hood

    Calum Hood New Member

    Joined:
    Jul 16, 2015
    Messages:
    7
    Likes Received:
    0
    thanks :v
     
  9. jose luis

    jose luis Member

    Joined:
    Nov 25, 2013
    Messages:
    234
    Likes Received:
    15
  10. Shadow

    Shadow Member

    Joined:
    Nov 29, 2013
    Messages:
    64
    Likes Received:
    7
    Thanks Much :)
     
  11. Dreamer

    Dreamer Lana Del Rey ♥ Capper V . I . P. Uploader

    Joined:
    Dec 4, 2014
    Messages:
    2,594
    Likes Received:
    2,909
    Thank you
     
  12. Puchacz93

    Puchacz93 Well-Known Member

    Joined:
    Feb 4, 2015
    Messages:
    1,206
    Likes Received:
    710
    Thank you.
     
  13. benja

    benja Well-Known Member

    Joined:
    Jan 8, 2014
    Messages:
    1,100
    Likes Received:
    63
    Thank you
     
  14. Himperios

    Himperios Member

    Joined:
    Oct 11, 2015
    Messages:
    285
    Likes Received:
    17
    Good
     
  15. koko_love22

    koko_love22 Member

    Joined:
    Sep 30, 2015
    Messages:
    62
    Likes Received:
    2
    thank you :victory:
     
  16. Johan Pinzon

    Johan Pinzon Member

    Joined:
    Aug 15, 2016
    Messages:
    302
    Likes Received:
    11
  17. tapions

    tapions Active Member

    Joined:
    Aug 30, 2016
    Messages:
    857
    Likes Received:
    63
    gracias
     
  18. Tommyboy

    Tommyboy Member

    Joined:
    Oct 23, 2016
    Messages:
    556
    Likes Received:
    17
  19. Breetystevens

    Breetystevens New Member

    Joined:
    Apr 16, 2016
    Messages:
    9
    Likes Received:
    1
  20. Breetystevens

    Breetystevens New Member

    Joined:
    Apr 16, 2016
    Messages:
    9
    Likes Received:
    1
  21. Breetystevens

    Breetystevens New Member

    Joined:
    Apr 16, 2016
    Messages:
    9
    Likes Received:
    1
    Thank you