SDTV Christina Aguilera - My Reflection (2000) 576p

Discussion in 'SD Live Performances' started by hanshermann, Sep 13, 2017.

  1. jerrmx

    jerrmx Active Member

    Joined:
    Sep 8, 2016
    Messages:
    715
    Likes Received:
    41
    thanks
     
  2. Clepsodra

    Clepsodra Active Member

    Joined:
    Jan 15, 2017
    Messages:
    835
    Likes Received:
    155
    [​IMG]MG]
    Christina Aguilera - My Reflection (2000)

    Code:
    General
    Complete name : Christina Aguilera - My Reflection (2000).mpg
    Format : MPEG-PS
    File size : 1.82 GiB
    Duration : 58 min 28 s
    Overall bit rate mode : Variable
    Overall bit rate : 4 468 kb/s

    Video
    ID : 224 (0xE0)
    Format : MPEG Video
    Format version : Version 2
    Format profile : Main@Main
    Format settings, BVOP : Yes
    Format settings, Matrix : Default
    Format settings, GOP : M=3, N=15
    Format settings, picture st : Frame
    Duration : 58 min 28 s
    Bit rate mode : Variable
    Bit rate : 3 995 kb/s
    Maximum bit rate : 7 456 kb/s
    Width : 720 pixels
    Height : 576 pixels
    Display aspect ratio : 4:3
    Frame rate : 25.000 FPS
    Standard : PAL
    Color space : YUV
    Chroma subsampling : 4:2:0
    Bit depth : 8 bits
    Scan type : Interlaced
    Scan order : Bottom Field First
    Compression mode : Lossy
    Bits/(Pixel*Frame) : 0.385
    Time code of first frame : 00:00:00:00
    Time code source : Group of pictures header
    GOP, Open/Closed : Open
    GOP, Open/Closed of first f : Closed
    Stream size : 1.63 GiB (89%)

    Audio
    ID : 192 (0xC0)
    Format : MPEG Audio
    Format version : Version 1
    Format profile : Layer 2
    Duration : 58 min 28 s
    Bit rate mode : Constant
    Bit rate : 384 kb/s
    Channel(s) : 2 channels
    Sampling rate : 48.0 kHz
    Compression mode : Lossy
    Stream size : 161 MiB (9%)

    Hidden Content:
    You must either reply or click 'Like' to see the hidden information contained here.
     
  3. angelspire

    angelspire Member

    Joined:
    Sep 7, 2018
    Messages:
    61
    Likes Received:
    1
  4. alterion

    alterion Active Member

    Joined:
    May 7, 2016
    Messages:
    995
    Likes Received:
    29