Christina Aguilera, Lil' Kim, Mya Marie Harrison & P!nk - Lady Marmalade (1080p Upscale)

Discussion in 'UPSCALED' started by adam dark, Dec 19, 2016.

  1. adam dark

    adam dark Video Music Lover <3 V . I . P.

    Joined:
    Dec 5, 2013
    Messages:
    2,550
    Likes Received:
    4,255
    Christina Aguilera, Lil' Kim, Mya Marie Harrison & P!nk - Lady Marmalade (1080p Upscale)
    [​IMG]
    [​IMG]
    [​IMG]
    [​IMG]
    [​IMG]
    [​IMG]
    Code:
    General
    Complete name                  : Christina Aguilera, Lil' Kim, Mya Marie Harrison & P!nk - Lady Marmalade (1080p Upscale).mov
    Format                         : MPEG-4
    Format profile                 : Base Media
    Codec ID                       : isom (isom/avc1/iso6)
    File size                      : 231 MiB
    Duration                       : 4 min 33 s
    Overall bit rate mode          : Variable
    Overall bit rate               : 7 090 kb/s
    Encoded date                   : UTC 2016-12-19 21:03:06
    Tagged date                    : UTC 2016-12-19 21:03:06
    
    Video
    ID                             : 1
    Format                         : AVC
    Format/Info                    : Advanced Video Codec
    Format profile                 : [email protected]
    Format settings, CABAC         : Yes
    Format settings, ReFrames      : 4 frames
    Codec ID                       : avc1
    Codec ID/Info                  : Advanced Video Coding
    Duration                       : 4 min 33 s
    Bit rate                       : 6 926 kb/s
    Maximum bit rate               : 17.0 Mb/s
    Width                          : 1 440 pixels
    Height                         : 1 080 pixels
    Display aspect ratio           : 4:3
    Frame rate mode                : Constant
    Frame rate                     : 23.976 (24000/1001) FPS
    Color space                    : YUV
    Chroma subsampling             : 4:2:0
    Bit depth                      : 8 bits
    Scan type                      : Progressive
    Bits/(Pixel*Frame)             : 0.186
    Stream size                    : 226 MiB (98%)
    Title                          : [email protected]
    Writing library                : x264 core 146 r2538 121396c
    Encoding settings              : cabac=1 / ref=2 / deblock=1:0:0 / analyse=0x3:0x131 / me=umh / subme=6 / psy=1 / psy_rd=1.00:0.00 / mixed_ref=1 / me_range=16 / chroma_me=1 / trellis=1 / 8x8dct=1 / cqm=0 / deadzone=21,11 / fast_pskip=1 / chroma_qp_offset=-2 / threads=12 / lookahead_threads=2 / sliced_threads=0 / nr=0 / decimate=1 / interlaced=0 / bluray_compat=0 / constrained_intra=0 / bframes=3 / b_pyramid=2 / b_adapt=1 / b_bias=0 / direct=1 / weightb=1 / open_gop=0 / weightp=2 / keyint=250 / keyint_min=23 / scenecut=40 / intra_refresh=0 / rc_lookahead=40 / rc=crf / mbtree=1 / crf=21.0 / qcomp=0.60 / qpmin=0 / qpmax=69 / qpstep=4 / ip_ratio=1.40 / aq=1:1.00
    Encoded date                   : UTC 2016-12-19 21:03:06
    Tagged date                    : UTC 2016-12-19 21:03:07
    
    Audio
    ID                             : 2
    Format                         : AAC
    Format/Info                    : Advanced Audio Codec
    Format profile                 : LC
    Codec ID                       : 40
    Duration                       : 4 min 33 s
    Bit rate mode                  : Variable
    Bit rate                       : 161 kb/s
    Maximum bit rate               : 180 kb/s
    Channel(s)                     : 2 channels
    Channel positions              : Front: L R
    Sampling rate                  : 48.0 kHz
    Frame rate                     : 46.875 FPS (1024 spf)
    Compression mode               : Lossy
    Stream size                    : 5.27 MiB (2%)
    Encoded date                   : UTC 2016-12-19 20:38:55
    Tagged date                    : UTC 2016-12-19 21:03:07
    Hidden Content:
    You must reply before you can see the hidden data contained here.
     
  2. Loading...


  3. nachostripped

    nachostripped Member

    Joined:
    Feb 5, 2015
    Messages:
    347
    Likes Received:
    12
    thank you
     
  4. Dave

    Dave Well-Known Member

    Joined:
    Jun 2, 2015
    Messages:
    615
    Likes Received:
    320
    gracias :)
     
  5. Danny82

    Danny82 Well-Known Member

    Joined:
    May 28, 2016
    Messages:
    1,457
    Likes Received:
    264
    OMG!!! :victory: Gracias por compartir :love::love:
     
  6. abdi

    abdi Nicki and Ariana fan V . I . P. Uploader

    Joined:
    Sep 23, 2014
    Messages:
    2,131
    Likes Received:
    6,796
    Thank you Adam ! :super::super:
     
  7. willjay

    willjay Member

    Joined:
    May 13, 2016
    Messages:
    155
    Likes Received:
    5
    Nice up
     
  8. MarkAle

    MarkAle Member

    Joined:
    Aug 20, 2016
    Messages:
    91
    Likes Received:
    4
    This is a must watch video for every pop fan
     
  9. lakersfan24

    lakersfan24 New Member

    Joined:
    Nov 22, 2016
    Messages:
    13
    Likes Received:
    0
    thank you
     
  10. titooo

    titooo Member

    Joined:
    Oct 26, 2016
    Messages:
    90
    Likes Received:
    1
    thank u!
     
  11. zzrlisa

    zzrlisa Member

    Joined:
    Dec 4, 2015
    Messages:
    211
    Likes Received:
    20
    thanks
     
  12. issamtohme

    issamtohme Active Member

    Joined:
    Oct 14, 2015
    Messages:
    401
    Likes Received:
    134
    thnks
     
  13. D3mon86

    D3mon86 Member

    Joined:
    Dec 19, 2016
    Messages:
    451
    Likes Received:
    2
    thanks
     
  14. khan

    khan Well-Known Member

    Joined:
    May 11, 2014
    Messages:
    1,163
    Likes Received:
    71
    thanks
     
  15. multimediafm

    multimediafm Well-Known Member Donor

    Joined:
    Mar 27, 2014
    Messages:
    8,580
    Likes Received:
    368
  16. hanshermann

    hanshermann Active Member

    Joined:
    Aug 24, 2016
    Messages:
    3,536
    Likes Received:
    24
    wahts taht
     
  17. quake2

    quake2 Active Member

    Joined:
    Oct 11, 2014
    Messages:
    890
    Likes Received:
    49
    thanks
     
  18. fred

    fred New Member

    Joined:
    Nov 25, 2015
    Messages:
    19
    Likes Received:
    1
    thanks
     
  19. luismolinanyc

    luismolinanyc Member

    Joined:
    May 17, 2016
    Messages:
    388
    Likes Received:
    16
  20. ddXogo

    ddXogo Member

    Joined:
    May 26, 2014
    Messages:
    268
    Likes Received:
    13
    Lady Marmalade , candy girls, thanks:D
     
  21. alberto piper naro

    alberto piper naro Member

    Joined:
    Jul 4, 2015
    Messages:
    441
    Likes Received:
    12