HDTV Christina Aguilera - Interview - Chelsea Lately 2012-10-18 1080i HDTV DD5.1 MPEG2-TrollHD

Discussion in 'Interviews / TV shows / Others' started by Thassyo, May 15, 2018 at 1:41 AM.

  1. Thassyo

    Thassyo Well-Known Member

    Joined:
    Oct 9, 2013
    Messages:
    2,756
    Likes Received:
    1,232
    [​IMG]
    Format : MPEG-TS
    File size : 545 MiB
    Duration : 6 min 30 s
    Overall bit rate mode : Variable
    Overall bit rate : 11.7 Mb/s
    Law rating : TV-14 (DLS)

    Video
    ID : 540 (0x21C)
    Menu ID : 1 (0x1)
    Format : MPEG Video
    Format version : Version 2
    Format profile : Main@High
    Format settings, BVOP : Yes
    Format settings, Matrix : Custom
    Format settings, GOP : M=3, N=15
    Format settings, picture struc : Frame
    Codec ID : 2
    Duration : 6 min 30 s
    Bit rate mode : Variable
    Bit rate : 10.7 Mb/s
    Maximum bit rate : 18.0 Mb/s
    Width : 1 920 pixels
    Height : 1 080 pixels
    Display aspect ratio : 16:9
    Frame rate : 29.970 (30000/1001) FPS
    Color space : YUV
    Chroma subsampling : 4:2:0
    Bit depth : 8 bits
    Scan type : Interlaced
    Scan order : Top Field First
    Compression mode : Lossy
    Bits/(Pixel*Frame) : 0.173
    Time code of first frame : 00:00:00;00
    Time code source : Group of pictures header
    GOP, Open/Closed : Open
    GOP, Open/Closed of first fram : Closed
    Stream size : 501 MiB (92%)

    Audio
    ID : 538 (0x21A)
    Menu ID : 1 (0x1)
    Format : AC-3
    Format/Info : Audio Coding 3
    Format settings, Endianness : Big
    Codec ID : 129
    Duration : 6 min 30 s
    Bit rate mode : Constant
    Bit rate : 384 kb/s
    Channel(s) : 6 channels
    Channel positions : Front: L C R, Side: L R, LFE
    Sampling rate : 48.0 kHz
    Frame rate : 31.250 FPS (1536 SPF)
    Bit depth : 16 bits
    Compression mode : Lossy
    Delay relative to video : 24 ms
    Stream size : 17.9 MiB (3%)
    Language : English
    Service kind : Complete Main

    Hidden Content:
    You must reply before you can see the hidden data contained here.
     
    hanshermann likes this.
  2. Loading...


  3. 3veronicas

    3veronicas Well-Known Member

    Joined:
    Aug 26, 2016
    Messages:
    1,624
    Likes Received:
    90
  4. redfive

    redfive Member

    Joined:
    Mar 11, 2016
    Messages:
    126
    Likes Received:
    3
  5. peny20

    peny20 Well-Known Member

    Joined:
    Oct 23, 2013
    Messages:
    1,809
    Likes Received:
    52
  6. benja

    benja Well-Known Member

    Joined:
    Jan 8, 2014
    Messages:
    1,451
    Likes Received:
    98
  7. nino.navy

    nino.navy Well-Known Member

    Joined:
    May 30, 2014
    Messages:
    2,817
    Likes Received:
    171
    OMG thanks a lot for a new Xtina interview <3 made my day !
     
    Thassyo likes this.
  8. mike gunen

    mike gunen Active Member

    Joined:
    Nov 9, 2013
    Messages:
    941
    Likes Received:
    40
  9. hanshermann

    hanshermann Well-Known Member Uploader

    Joined:
    Aug 24, 2016
    Messages:
    6,055
    Likes Received:
    8,248
  10. TINaLIFe

    TINaLIFe Member

    Joined:
    Jan 15, 2017
    Messages:
    93
    Likes Received:
    10
    thanks