Christina Aguilera - Genie In A Bottle (1080p-AI-Upscale-PCM)

Discussion in 'UPSCALED' started by adam dark, Jul 13, 2020.

  1. adam dark

    adam dark Video Music Lover <3 V . I . P.

    Joined:
    Dec 5, 2013
    Messages:
    2,830
    Likes Received:
    7,535
    Christina Aguilera - Genie In A Bottle (1080p-AI-Upscale-PCM)

    [​IMG]
    [​IMG]
    [​IMG]
    [​IMG]
    [​IMG]
    [​IMG]
    [​IMG]
    Source: DVD
    Code:
    General
    Unique ID                      : 106519502124530671100873656890739948564 (0x5022E8EDEA14D035E5420AD74E907C14)
    Complete name                  : Christina Aguilera - Genie In A Bottle (1080p-AI-Upscale-PCM).mkv
    Format                         : Matroska
    Format version                 : Version 4
    File size                      : 900 MiB
    Duration                       : 3 min 37 s
    Overall bit rate               : 34.7 Mb/s
    Encoded date                   : UTC 2020-07-13 20:54:54
    Writing application            : mkvmerge v47.0.0 ('Black Flag') 64-bit
    Writing library                : libebml v1.3.10 + libmatroska v1.5.2
    
    Video
    ID                             : 1
    Format                         : AVC
    Format/Info                    : Advanced Video Codec
    Format profile                 : High@L4.1
    Format settings                : CABAC / 4 Ref Frames
    Format settings, CABAC         : Yes
    Format settings, Reference fra : 4 frames
    Codec ID                       : V_MPEG4/ISO/AVC
    Duration                       : 3 min 37 s
    Bit rate                       : 33.2 Mb/s
    Width                          : 1 920 pixels
    Height                         : 1 080 pixels
    Display aspect ratio           : 16:9
    Frame rate mode                : Constant
    Frame rate                     : 23.976 (24000/1001) FPS
    Color space                    : YUV
    Chroma subsampling             : 4:2:0
    Bit depth                      : 8 bits
    Scan type                      : Progressive
    Bits/(Pixel*Frame)             : 0.667
    Stream size                    : 860 MiB (96%)
    Writing library                : x264 core 157 r2969 d4099dd
    Encoding settings              : cabac=1 / ref=4 / deblock=1:0:0 / analyse=0x3:0x133 / me=tesa / subme=9 / psy=1 / psy_rd=1.00:0.00 / mixed_ref=1 / me_range=24 / chroma_me=1 / trellis=2 / 8x8dct=1 / cqm=0 / deadzone=21,11 / fast_pskip=0 / chroma_qp_offset=-2 / threads=12 / lookahead_threads=3 / sliced_threads=0 / nr=0 / decimate=1 / interlaced=0 / bluray_compat=0 / constrained_intra=0 / bframes=16 / b_pyramid=2 / b_adapt=2 / b_bias=0 / direct=3 / weightb=1 / open_gop=0 / weightp=2 / keyint=240 / keyint_min=23 / scenecut=40 / intra_refresh=0 / rc=cqp / mbtree=0 / qp=17 / ip_ratio=1.40 / pb_ratio=1.30 / aq=0
    Default                        : Yes
    Forced                         : No
    
    Audio
    ID                             : 2
    Format                         : PCM
    Format settings                : Little / Signed
    Codec ID                       : A_PCM/INT/LIT
    Duration                       : 3 min 37 s
    Bit rate mode                  : Constant
    Bit rate                       : 1 536 kb/s
    Channel(s)                     : 2 channels
    Sampling rate                  : 48.0 kHz
    Frame rate                     : 32.003 FPS (1500 SPF)
    Bit depth                      : 16 bits
    Stream size                    : 39.8 MiB (4%)
    Default                        : Yes
    Forced                         : No
    Hidden Content:
    You must reply before you can see the hidden data contained here.
     
    Last edited: Jul 13, 2020
    Dias, CarlEvans, jinkx and 10 others like this.
  2. Loading...


  3. Musicfreak7676

    Musicfreak7676 Active Member

    Joined:
    Apr 9, 2019
    Messages:
    314
    Likes Received:
    66
    Will try out this upscale! TYSM! Think you could try "Hurt" and "Candyman?" They're the two I am missing!
     
  4. noho_2003

    noho_2003 Well-Known Member

    Joined:
    Sep 26, 2017
    Messages:
    1,101
    Likes Received:
    41
  5. rcj

    rcj Well-Known Member

    Joined:
    May 11, 2016
    Messages:
    1,426
    Likes Received:
    133
    Thank U!
     
  6. dinhotwain

    dinhotwain Well-Known Member

    Joined:
    Jan 1, 2015
    Messages:
    2,356
    Likes Received:
    309
  7. jorgerolan

    jorgerolan Member

    Joined:
    Mar 18, 2019
    Messages:
    651
    Likes Received:
    18
    gracias
     
  8. TGO

    TGO Active Member Donor

    Joined:
    Sep 28, 2017
    Messages:
    396
    Likes Received:
    140
    Thank you so much :D
     
  9. plwww

    plwww Well-Known Member

    Joined:
    May 28, 2016
    Messages:
    1,184
    Likes Received:
    82
    thanks
     
  10. andreamonger

    andreamonger Well-Known Member

    Joined:
    May 16, 2015
    Messages:
    1,734
    Likes Received:
    292
    newww yeaah :)
     
  11. Tiago

    Tiago Well-Known Member

    Joined:
    Dec 7, 2013
    Messages:
    3,391
    Likes Received:
    255
    thanks
     
  12. kana3245

    kana3245 Well-Known Member

    Joined:
    Aug 15, 2016
    Messages:
    1,428
    Likes Received:
    71
    thank you
     
  13. mikenlegna

    mikenlegna Member

    Joined:
    Jul 13, 2019
    Messages:
    323
    Likes Received:
    9
  14. mat2103

    mat2103 Well-Known Member

    Joined:
    Dec 6, 2016
    Messages:
    1,568
    Likes Received:
    95
    Thank you so much ^_^
     
  15. argon213

    argon213 Member

    Joined:
    Jan 6, 2018
    Messages:
    305
    Likes Received:
    22
    Thank you!
     
  16. kiiwii

    kiiwii Active Member

    Joined:
    Oct 10, 2013
    Messages:
    628
    Likes Received:
    33
    Thank you so much ^_^
     
  17. multimediafm

    multimediafm Well-Known Member Archiver Donor

    Joined:
    Mar 27, 2014
    Messages:
    18,142
    Likes Received:
    1,756
  18. quake360

    quake360 Member

    Joined:
    Feb 1, 2020
    Messages:
    344
    Likes Received:
    23
  19. Shing800

    Shing800 Active Member

    Joined:
    Feb 21, 2019
    Messages:
    923
    Likes Received:
    27
    Thanks!!
     
  20. allynat

    allynat Well-Known Member

    Joined:
    Dec 25, 2017
    Messages:
    1,173
    Likes Received:
    41
    gracias
     
  21. Lordbr666

    Lordbr666 Well-Known Member

    Joined:
    May 24, 2020
    Messages:
    2,051
    Likes Received:
    79
    Thank You!