SDTV Christina Aguilera Feat. Redman - Dirrty (MTV New York City)

Discussion in 'SD Live Performances' started by hanshermann, Apr 12, 2018.

  1. hanshermann

    hanshermann Well-Known Member Uploader

    Joined:
    Aug 24, 2016
    Messages:
    7,543
    Likes Received:
    13,442
    [​IMG]

    Christina Aguilera Feat. Redman - Dirrty (MTV New York City)

    General
    Complete name : Christina Aguilera Feat. Redman - Dirrty (MTV New York City).mpg
    Format : MPEG-PS
    File size : 179 MiB
    Duration : 4 min 40 s
    Overall bit rate mode : Constant
    Overall bit rate : 5 335 kb/s

    Video
    ID : 224 (0xE0)
    Format : MPEG Video
    Format version : Version 2
    Format profile : Main@Main
    Format settings, BVOP : Yes
    Format settings, Matrix : Custom
    Format settings, GOP : M=3, N=13
    Format settings, picture st : Frame
    Duration : 4 min 40 s
    Bit rate mode : Constant
    Bit rate : 5 000 kb/s
    Width : 720 pixels
    Height : 576 pixels
    Display aspect ratio : 4:3
    Frame rate : 25.000 FPS
    Standard : PAL
    Color space : YUV
    Chroma subsampling : 4:2:0
    Bit depth : 8 bits
    Scan type : Interlaced
    Scan order : Top Field First
    Compression mode : Lossy
    Bits/(Pixel*Frame) : 0.482
    Time code of first frame : 00:00:00:00
    Time code source : Group of pictures header
    GOP, Open/Closed : Closed
    Stream size : 168 MiB (94%)
    Color primaries : BT.601 PAL
    Transfer characteristics : BT.470 System B, BT.470 System G
    Matrix coefficients : FCC 73.682

    Audio
    ID : 192 (0xC0)
    Format : MPEG Audio
    Format version : Version 1
    Format profile : Layer 2
    Duration : 4 min 40 s
    Bit rate mode : Constant
    Bit rate : 224 kb/s
    Channel(s) : 2 channels
    Sampling rate : 48.0 kHz
    Compression mode : Lossy
    Delay relative to video : 8 ms
    Stream size : 7.50 MiB (4%)

    Menu

    Hidden Content:
    You must either reply or click 'Like' to see the hidden information contained here.
     
    Last edited: Apr 13, 2018
    kzqify, bigray72, johymbim and 18 others like this.
  2. Loading...


  3. miguelmr87

    miguelmr87 Well-Known Member

    Joined:
    Dec 20, 2013
    Messages:
    1,949
    Likes Received:
    373
    thank u so much
     
  4. hugonicolas

    hugonicolas Active Member

    Joined:
    Aug 25, 2017
    Messages:
    880
    Likes Received:
    40
  5. n3grox

    n3grox Active Member

    Joined:
    May 25, 2016
    Messages:
    451
    Likes Received:
    28
    thanks
     
  6. exterminador

    exterminador Well-Known Member

    Joined:
    Jul 3, 2016
    Messages:
    2,570
    Likes Received:
    214
  7. gilsimars

    gilsimars Member

    Joined:
    Apr 16, 2018
    Messages:
    56
    Likes Received:
    4
    be
    THE BEST ERA BY XTINA
     
  8. multimediafm

    multimediafm Well-Known Member Donor

    Joined:
    Mar 27, 2014
    Messages:
    13,568
    Likes Received:
    1,063
  9. massej

    massej Member

    Joined:
    Oct 1, 2016
    Messages:
    78
    Likes Received:
    3
    Thank you
     
  10. Grande44

    Grande44 Member

    Joined:
    Jul 19, 2016
    Messages:
    348
    Likes Received:
    7
    thanks
     
  11. Amauri Luiz

    Amauri Luiz Well-Known Member

    Joined:
    Jan 14, 2014
    Messages:
    2,039
    Likes Received:
    84
    Thank you!
     
  12. jojo335

    jojo335 Member

    Joined:
    Jan 18, 2017
    Messages:
    305
    Likes Received:
    14
    thanks
     
  13. peny20

    peny20 Well-Known Member

    Joined:
    Oct 23, 2013
    Messages:
    2,248
    Likes Received:
    55
    thanks
     
  14. toonbbv

    toonbbv Well-Known Member

    Joined:
    Dec 11, 2013
    Messages:
    2,289
    Likes Received:
    108
    thank you
     
  15. Marcos Sannin

    Marcos Sannin Well-Known Member

    Joined:
    Dec 11, 2014
    Messages:
    1,047
    Likes Received:
    884
  16. rkgmade

    rkgmade Well-Known Member

    Joined:
    Sep 29, 2016
    Messages:
    1,629
    Likes Received:
    86
    THA
    NK YOU
     
  17. MACHADO

    MACHADO Active Member

    Joined:
    Jun 12, 2017
    Messages:
    554
    Likes Received:
    37
    gracias
     
  18. revilo18

    revilo18 Well-Known Member

    Joined:
    May 26, 2016
    Messages:
    2,290
    Likes Received:
    117
    thank
    kkkkkkkkkk
     
  19. vikakotova

    vikakotova Member

    Joined:
    May 31, 2017
    Messages:
    126
    Likes Received:
    10
  20. candy

    candy New Member

    Joined:
    May 13, 2018
    Messages:
    24
    Likes Received:
    1
    thanks
     
  21. mvlmoraes

    mvlmoraes Well-Known Member Donor

    Joined:
    Nov 22, 2013
    Messages:
    3,256
    Likes Received:
    434
    thanks