SDTV Christina Aguilera Feat. Redman - Dirrty (MTV New York City)

Discussion in 'SD Live Performances' started by hanshermann, Apr 12, 2018.

  1. hanshermann

    hanshermann Well-Known Member Uploader

    Joined:
    Aug 24, 2016
    Messages:
    5,762
    Likes Received:
    7,261
    [​IMG]

    Christina Aguilera Feat. Redman - Dirrty (MTV New York City)

    General
    Complete name : Christina Aguilera Feat. Redman - Dirrty (MTV New York City).mpg
    Format : MPEG-PS
    File size : 179 MiB
    Duration : 4 min 40 s
    Overall bit rate mode : Constant
    Overall bit rate : 5 335 kb/s

    Video
    ID : 224 (0xE0)
    Format : MPEG Video
    Format version : Version 2
    Format profile : Main@Main
    Format settings, BVOP : Yes
    Format settings, Matrix : Custom
    Format settings, GOP : M=3, N=13
    Format settings, picture st : Frame
    Duration : 4 min 40 s
    Bit rate mode : Constant
    Bit rate : 5 000 kb/s
    Width : 720 pixels
    Height : 576 pixels
    Display aspect ratio : 4:3
    Frame rate : 25.000 FPS
    Standard : PAL
    Color space : YUV
    Chroma subsampling : 4:2:0
    Bit depth : 8 bits
    Scan type : Interlaced
    Scan order : Top Field First
    Compression mode : Lossy
    Bits/(Pixel*Frame) : 0.482
    Time code of first frame : 00:00:00:00
    Time code source : Group of pictures header
    GOP, Open/Closed : Closed
    Stream size : 168 MiB (94%)
    Color primaries : BT.601 PAL
    Transfer characteristics : BT.470 System B, BT.470 System G
    Matrix coefficients : FCC 73.682

    Audio
    ID : 192 (0xC0)
    Format : MPEG Audio
    Format version : Version 1
    Format profile : Layer 2
    Duration : 4 min 40 s
    Bit rate mode : Constant
    Bit rate : 224 kb/s
    Channel(s) : 2 channels
    Sampling rate : 48.0 kHz
    Compression mode : Lossy
    Delay relative to video : 8 ms
    Stream size : 7.50 MiB (4%)

    Menu

    Hidden Content:
    You must either reply or click 'Like' to see the hidden information contained here.
     
    Last edited: Apr 13, 2018
    carlos69, Sidney, stefayelen and 7 others like this.
  2. Loading...


  3. miguelmr87

    miguelmr87 Well-Known Member

    Joined:
    Dec 20, 2013
    Messages:
    1,157
    Likes Received:
    267
    thank u so much
     
  4. hugonicolas

    hugonicolas Active Member

    Joined:
    Aug 25, 2017
    Messages:
    655
    Likes Received:
    27
  5. n3grox

    n3grox Member

    Joined:
    May 25, 2016
    Messages:
    345
    Likes Received:
    16
    thanks
     
  6. exterminador

    exterminador Well-Known Member

    Joined:
    Jul 3, 2016
    Messages:
    2,091
    Likes Received:
    184
  7. gilsimars

    gilsimars New Member

    Joined:
    Monday
    Messages:
    27
    Likes Received:
    1
    be
    THE BEST ERA BY XTINA
     
  8. multimediafm

    multimediafm Well-Known Member Donor

    Joined:
    Mar 27, 2014
    Messages:
    11,931
    Likes Received:
    788
  9. massej

    massej Member

    Joined:
    Oct 1, 2016
    Messages:
    60
    Likes Received:
    2
  10. Grande44

    Grande44 Member

    Joined:
    Jul 19, 2016
    Messages:
    270
    Likes Received:
    5
  11. Amauri Luiz

    Amauri Luiz Well-Known Member

    Joined:
    Jan 14, 2014
    Messages:
    1,706
    Likes Received:
    63
  12. jojo335

    jojo335 Member

    Joined:
    Jan 18, 2017
    Messages:
    256
    Likes Received:
    7