Christina Aguilera Feat. Lil' Kim, Mya & Pink - Lady Marmalade (PARAMOUNTHD-1080i-DD2.0-CELOBRAZiL)

Discussion in 'PARAMOUNT' started by J_Pablo, Dec 1, 2016.

  1. J_Pablo

    J_Pablo Active Member

    Joined:
    Nov 27, 2013
    Messages:
    502
    Likes Received:
    101
    [​IMG]

    Code:
    General
    Format                         : MPEG-TS
    File size                      : 287 MiB
    Duration                       : 4mn 31s
    Overall bit rate mode          : Variable
    Overall bit rate               : 8 849 Kbps
    
    Video
    ID                             : 6960 (0x1B30)
    Menu ID                        : 658 (0x292)
    Format                         : AVC
    Format/Info                    : Advanced Video Codec
    Format profile                 : [email protected]
    Format settings, CABAC         : Yes
    Format settings, ReFrames      : 3 frames
    Codec ID                       : 27
    Duration                       : 4mn 32s
    Bit rate                       : 8 024 Kbps
    Width                          : 1 920 pixels
    Height                         : 1 080 pixels
    Display aspect ratio           : 16:9
    Frame rate                     : 29.970 fps
    Color space                    : YUV
    Chroma subsampling             : 4:2:0
    Bit depth                      : 8 bits
    Scan type                      : MBAFF
    Scan order                     : Top Field First
    Bits/(Pixel*Frame)             : 0.129
    Stream size                    : 260 MiB (91%)
    
    Audio #1
    ID                             : 6961 (0x1B31)
    Menu ID                        : 658 (0x292)
    Format                         : AC-3
    Format/Info                    : Audio Coding 3
    Mode extension                 : CM (complete main)
    Format settings, Endianness    : Big
    Codec ID                       : 129
    Duration                       : 4mn 32s
    Bit rate mode                  : Constant
    Bit rate                       : 192 Kbps
    Channel(s)                     : 2 channels
    Channel positions              : Front: L R
    Sampling rate                  : 48.0 KHz
    Bit depth                      : 16 bits
    Compression mode               : Lossy
    Stream size                    : 6.23 MiB (2%)
    Language                       : Portuguese
    
    Audio #2
    ID                             : 6962 (0x1B32)
    Menu ID                        : 658 (0x292)
    Format                         : AC-3
    Format/Info                    : Audio Coding 3
    Mode extension                 : CM (complete main)
    Format settings, Endianness    : Big
    Codec ID                       : 129
    Duration                       : 4mn 32s
    Bit rate mode                  : Constant
    Bit rate                       : 192 Kbps
    Channel(s)                     : 2 channels
    Channel positions              : Front: L R
    Sampling rate                  : 48.0 KHz
    Bit depth                      : 16 bits
    Compression mode               : Lossy
    Stream size                    : 6.23 MiB (2%)
    Language                       : English

    Hidden Content:
    You must reply before you can see the hidden data contained here.
     
    rhea, Sidney, lebartt and 2 others like this.
  2. theclimb

    theclimb Active Member

    Joined:
    Dec 16, 2014
    Messages:
    622
    Likes Received:
    113
    Thanks.
     
  3. BetaKsi

    BetaKsi Well-Known Member

    Joined:
    Oct 18, 2015
    Messages:
    971
    Likes Received:
    357
    Thank you))
     
  4. franklele

    franklele Well-Known Member

    Joined:
    Nov 11, 2013
    Messages:
    1,965
    Likes Received:
    95
    thank you very much
     
  5. Danny82

    Danny82 Well-Known Member

    Joined:
    May 28, 2016
    Messages:
    1,702
    Likes Received:
    342
    Thank for shared!
     
  6. Jorge Barrionuevo

    Jorge Barrionuevo Well-Known Member

    Joined:
    Jun 9, 2015
    Messages:
    1,076
    Likes Received:
    366
    Muchas Gracias!
     
  7. Pedro Correia

    Pedro Correia Active Member

    Joined:
    Apr 17, 2014
    Messages:
    828
    Likes Received:
    84
  8. bugmenot

    bugmenot Member

    Joined:
    Nov 17, 2016
    Messages:
    272
    Likes Received:
    6
    thanks
     
  9. guiwstj

    guiwstj Member

    Joined:
    Oct 7, 2016
    Messages:
    142
    Likes Received:
    3
    thanks
     
  10. luisjose24

    luisjose24 Active Member

    Joined:
    Aug 24, 2016
    Messages:
    276
    Likes Received:
    163
    Thank you
     
  11. FilthyMcNasty

    FilthyMcNasty Member

    Joined:
    Jan 17, 2016
    Messages:
    49
    Likes Received:
    2
  12. crisxcx

    crisxcx Member

    Joined:
    Dec 5, 2016
    Messages:
    120
    Likes Received:
    1
    thx
    someone has a logoless version?
     
    multimediafm likes this.
  13. JACK1996

    JACK1996 New Member

    Joined:
    Nov 22, 2016
    Messages:
    24
    Likes Received:
    0
    THANKS
     
  14. lakersfan24

    lakersfan24 New Member

    Joined:
    Nov 22, 2016
    Messages:
    15
    Likes Received:
    0
    thank you
     
  15. Jrec

    Jrec Active Member

    Joined:
    May 11, 2016
    Messages:
    637
    Likes Received:
    28
    Thanks
     
  16. J_Pablo

    J_Pablo Active Member

    Joined:
    Nov 27, 2013
    Messages:
    502
    Likes Received:
    101
  17. kabrone

    kabrone Member

    Joined:
    Oct 16, 2015
    Messages:
    64
    Likes Received:
    2
    thank you
     
  18. anunnaki

    anunnaki Member

    Joined:
    Nov 19, 2016
    Messages:
    224
    Likes Received:
    5
  19. lebartt

    lebartt Member

    Joined:
    Nov 20, 2013
    Messages:
    259
    Likes Received:
    14
    tnx so much
     
  20. waat

    waat Member

    Joined:
    Jan 19, 2015
    Messages:
    284
    Likes Received:
    2
    Thanks