WEB-RiP Christina Aguilera - Come On Over Baby (All I Want Is You) (2000 VMA Performance)

Discussion in 'SD Live Performances' started by thankstome, Jan 23, 2018.

  1. joe007

    joe007 Member

    Joined:
    Apr 5, 2017
    Messages:
    654
    Likes Received:
    22
    Thanks
     
  2. Lisa-20112011

    Lisa-20112011 Active Member

    Joined:
    Jun 25, 2018
    Messages:
    1,047
    Likes Received:
    18
  3. funhawg

    funhawg Member

    Joined:
    Jan 4, 2014
    Messages:
    240
    Likes Received:
    4
    Thank you
     
  4. quake2

    quake2 Well-Known Member

    Joined:
    Oct 11, 2014
    Messages:
    1,710
    Likes Received:
    145
    thanks
     
  5. silvio1996

    silvio1996 Active Member

    Joined:
    Oct 16, 2016
    Messages:
    269
    Likes Received:
    37
    thank you
     
  6. yovany

    yovany Member

    Joined:
    Mar 31, 2017
    Messages:
    95
    Likes Received:
    6
    epic great
     
  7. angelspire

    angelspire Member

    Joined:
    Sep 7, 2018
    Messages:
    116
    Likes Received:
    3
    thank you
     
  8. unprdctble556

    unprdctble556 Member

    Joined:
    May 21, 2017
    Messages:
    134
    Likes Received:
    8
  9. albertomHD

    albertomHD New Member

    Joined:
    May 3, 2014
    Messages:
    12
    Likes Received:
    0
    thank youuuuuuuuu
     
  10. mvlmoraes

    mvlmoraes Well-Known Member Donor

    Joined:
    Nov 22, 2013
    Messages:
    3,215
    Likes Received:
    428
    thanks
     
  11. mvlmoraes

    mvlmoraes Well-Known Member Donor

    Joined:
    Nov 22, 2013
    Messages:
    3,215
    Likes Received:
    428
    thanks
     
  12. mandlasz

    mandlasz Member

    Joined:
    Sep 15, 2018
    Messages:
    181
    Likes Received:
    4
    thank you
     
  13. yoereyesr21

    yoereyesr21 Active Member

    Joined:
    Mar 12, 2016
    Messages:
    387
    Likes Received:
    47
  14. Xtibus-Fighter

    Xtibus-Fighter New Member

    Joined:
    Oct 31, 2018
    Messages:
    15
    Likes Received:
    0
    thanks [​IMG][​IMG]
    Code:
    Format                      : MPEG-4
    Format profile              : Base Media
    Codec ID                    : isom (isom/iso2/avc1/mp41)
    File size                   : 103 MiB
    Duration                    : 4 min 0 s
    Overall bit rate mode       : Variable
    Overall bit rate            : 3 609 kb/s
    
    Video
    ID                          : 1
    Format                      : AVC
    Format/Info                 : Advanced Video Codec
    Format profile              : High@L3
    Format settings             : CABAC / 4 Ref Frames
    Format settings, CABAC      : Yes
    Format settings, RefFrames  : 4 frames
    Codec ID                    : avc1
    Codec ID/Info               : Advanced Video Coding
    Duration                    : 4 min 0 s
    Source duration             : 4 min 0 s
    Bit rate                    : 3 500 kb/s
    Width                       : 1 280 pixels
    Height                      : 720 pixels
    Display aspect ratio        : 16:9
    Frame rate mode             : Variable
    Frame rate                  : 29.970 (29970/1000) FPS
    Minimum frame rate          : 10.000 FPS
    Maximum frame rate          : 90.909 FPS
    Color space                 : YUV
    Chroma subsampling          : 4:2:0
    Bit depth                   : 8 bits
    Scan type                   : Progressive
    Bits/(Pixel*Frame)          : 0.127
    Stream size                 : 100 MiB (97%)
    Source stream size          : 100 MiB (97%)
    Writing library             : x264 core 136
    Encoding settings           : cabac=1 / ref=4 / deblock=1:0:0 / analyse=0x3:0x113 / me=umh / subme=7 / psy=1 / psy_rd=0.00:0.00 / mixed_ref=1 / me_range=16 / chroma_me=1 / trellis=1 / 8x8dct=1 / cqm=0 / deadzone=21,11 / fast_pskip=0 / chroma_qp_offset=0 / threads=48 / lookahead_threads=5 / sliced_threads=0 / nr=0 / decimate=1 / interlaced=0 / bluray_compat=0 / constrained_intra=0 / bframes=16 / b_pyramid=2 / b_adapt=1 / b_bias=0 / direct=3 / weightb=1 / open_gop=0 / weightp=2 / keyint=60 / keyint_min=25 / scenecut=40 / intra_refresh=0 / rc_lookahead=40 / rc=abr / mbtree=1 / bitrate=3500 / ratetol=1.0 / qcomp=0.60 / qpmin=10 / qpmax=51 / qpstep=4 / ip_ratio=1.41 / aq=1:1.00
    mdhd_Duration               : 240073
    
    Audio
    ID                          : 2
    Format                      : AAC
    Format/Info                 : Advanced Audio Codec
    Format profile              : LC
    Codec ID                    : mp4a-40-2
    Duration                    : 4 min 0 s
    Bit rate mode               : Variable
    Bit rate                    : 96.0 kb/s
    Maximum bit rate            : 137 kb/s
    Channel(s)                  : 2 channels
    Channel positions           : Front: L R
    Sampling rate               : 44.1 kHz
    Frame rate                  : 43.066 FPS (1024 SPF)
    Compression mode            : Lossy
    Stream size                 : 2.75 MiB (3%)
    mdhd_Duration               : 240327
    
    ***Hidden content cannot be quoted.***[/QUOTE]
     
  15. ruth

    ruth Member

    Joined:
    Jun 4, 2017
    Messages:
    92
    Likes Received:
    1
    Thanks
     
  16. wilmer ardila

    wilmer ardila Well-Known Member

    Joined:
    Nov 14, 2014
    Messages:
    1,271
    Likes Received:
    64