HDTV Christina Aguilera - Blank Page (People's Choice Awards 09.01.2013) 1080i

Discussion in 'HD Live Performances' started by hanshermann, Dec 7, 2017.

  1. hanshermann

    hanshermann Well-Known Member Uploader

    Joined:
    Aug 24, 2016
    Messages:
    5,037
    Likes Received:
    3,799
    [​IMG]

    Christina Aguilera - Blank Page (People's Choice Awards 09.01.2013) 1080i

    Code:
    General
    Complete name               : Christina Aguilera - Blank Page (People's Choice Awards 09.01.2013).mpg
    Format                      : MPEG-PS
    File size                   : 509 MiB
    Duration                    : 4 min 14 s
    Overall bit rate mode       : Variable
    Overall bit rate            : 16.8 Mb/s
    
    Video
    ID                          : 224 (0xE0)
    Format                      : MPEG Video
    Format version              : Version 2
    Format profile              : [email protected]
    Format settings, BVOP       : Yes
    Format settings, Matrix     : Custom
    Format settings, GOP        : M=3, N=15
    Format settings, picture st : Frame
    Duration                    : 4 min 14 s
    Bit rate mode               : Variable
    Bit rate                    : 16.0 Mb/s
    Maximum bit rate            : 38.8 Mb/s
    Width                       : 1 920 pixels
    Height                      : 1 080 pixels
    Display aspect ratio        : 16:9
    Frame rate                  : 29.970 (30000/1001) FPS
    Standard                    : PAL
    Color space                 : YUV
    Chroma subsampling          : 4:2:0
    Bit depth                   : 8 bits
    Scan type                   : Interlaced
    Scan order                  : Top Field First
    Compression mode            : Lossy
    Bits/(Pixel*Frame)          : 0.257
    Stream size                 : 485 MiB (95%)
    Color primaries             : BT.709
    Transfer characteristics    : BT.709
    Matrix coefficients         : BT.709
    
    Audio
    ID                          : 189 (0xBD)-128 (0x80)
    Format                      : AC-3
    Format/Info                 : Audio Coding 3
    Format settings, Endianness : Big
    Muxing mode                 : DVD-Video
    Duration                    : 4 min 14 s
    Bit rate mode               : Constant
    Bit rate                    : 448 kb/s
    Channel(s)                  : 6 channels
    Channel positions           : Front: L C R, Side: L R, LFE
    Sampling rate               : 48.0 kHz
    Frame rate                  : 31.250 FPS (1536 spf)
    Bit depth                   : 16 bits
    Compression mode            : Lossy
    Delay relative to video     : -579 ms
    Stream size                 : 13.6 MiB (3%)
    Service kind                : Complete Main
    Hidden Content:
    You must either reply or click 'Like' to see the hidden information contained here.
     
    mr.figres, rhea, jadastevens and 4 others like this.
  2. Loading...


  3. exterminador

    exterminador Well-Known Member

    Joined:
    Jul 3, 2016
    Messages:
    1,741
    Likes Received:
    158
  4. benja

    benja Well-Known Member

    Joined:
    Jan 8, 2014
    Messages:
    1,317
    Likes Received:
    83
    Thank you
     
  5. sideshow_bob

    sideshow_bob Well-Known Member

    Joined:
    Dec 20, 2013
    Messages:
    3,026
    Likes Received:
    189
    Thank you
     
  6. nino.navy

    nino.navy Well-Known Member

    Joined:
    May 30, 2014
    Messages:
    2,356
    Likes Received:
    89
    thanks a lot
     
  7. Glauber

    Glauber Active Member

    Joined:
    Sep 22, 2014
    Messages:
    320
    Likes Received:
    25
    Thanks
     
  8. thiagodema

    thiagodema Well-Known Member

    Joined:
    Jan 19, 2014
    Messages:
    742
    Likes Received:
    398
    thanks for joob
     
  9. hungquocphan

    hungquocphan Active Member

    Joined:
    Nov 1, 2013
    Messages:
    623
    Likes Received:
    33
  10. mike gunen

    mike gunen Active Member

    Joined:
    Nov 9, 2013
    Messages:
    880
    Likes Received:
    31
    Thank you
     
  11. jadastevens

    jadastevens New Member

    Joined:
    Nov 3, 2017
    Messages:
    24
    Likes Received:
    2
    the great Xtina
     
  12. rhea

    rhea Well-Known Member

    Joined:
    Jan 6, 2014
    Messages:
    6,945
    Likes Received:
    755
    thanks
     
  13. apl3

    apl3 Member

    Joined:
    Jun 11, 2017
    Messages:
    562
    Likes Received:
    20
  14. mr.figres

    mr.figres Member

    Joined:
    Jul 8, 2016
    Messages:
    52
    Likes Received:
    4
    t
    thanks
     
  15. Amauri Luiz

    Amauri Luiz Well-Known Member

    Joined:
    Jan 14, 2014
    Messages:
    1,357
    Likes Received:
    50
  16. ulygatore

    ulygatore Active Member

    Joined:
    Jun 29, 2017
    Messages:
    913
    Likes Received:
    36