HDTV Christina Aguilera - Blank Page (People's Choice Awards 09.01.2013) 1080i

Discussion in 'HD Live Performances' started by hanshermann, Dec 7, 2017.

  1. hanshermann

    hanshermann Well-Known Member Uploader

    Joined:
    Aug 24, 2016
    Messages:
    7,245
    Likes Received:
    12,552
    [​IMG]

    Christina Aguilera - Blank Page (People's Choice Awards 09.01.2013) 1080i

    Code:
    General
    Complete name               : Christina Aguilera - Blank Page (People's Choice Awards 09.01.2013).mpg
    Format                      : MPEG-PS
    File size                   : 509 MiB
    Duration                    : 4 min 14 s
    Overall bit rate mode       : Variable
    Overall bit rate            : 16.8 Mb/s
    
    Video
    ID                          : 224 (0xE0)
    Format                      : MPEG Video
    Format version              : Version 2
    Format profile              : Main@High
    Format settings, BVOP       : Yes
    Format settings, Matrix     : Custom
    Format settings, GOP        : M=3, N=15
    Format settings, picture st : Frame
    Duration                    : 4 min 14 s
    Bit rate mode               : Variable
    Bit rate                    : 16.0 Mb/s
    Maximum bit rate            : 38.8 Mb/s
    Width                       : 1 920 pixels
    Height                      : 1 080 pixels
    Display aspect ratio        : 16:9
    Frame rate                  : 29.970 (30000/1001) FPS
    Standard                    : PAL
    Color space                 : YUV
    Chroma subsampling          : 4:2:0
    Bit depth                   : 8 bits
    Scan type                   : Interlaced
    Scan order                  : Top Field First
    Compression mode            : Lossy
    Bits/(Pixel*Frame)          : 0.257
    Stream size                 : 485 MiB (95%)
    Color primaries             : BT.709
    Transfer characteristics    : BT.709
    Matrix coefficients         : BT.709
    
    Audio
    ID                          : 189 (0xBD)-128 (0x80)
    Format                      : AC-3
    Format/Info                 : Audio Coding 3
    Format settings, Endianness : Big
    Muxing mode                 : DVD-Video
    Duration                    : 4 min 14 s
    Bit rate mode               : Constant
    Bit rate                    : 448 kb/s
    Channel(s)                  : 6 channels
    Channel positions           : Front: L C R, Side: L R, LFE
    Sampling rate               : 48.0 kHz
    Frame rate                  : 31.250 FPS (1536 spf)
    Bit depth                   : 16 bits
    Compression mode            : Lossy
    Delay relative to video     : -579 ms
    Stream size                 : 13.6 MiB (3%)
    Service kind                : Complete Main
    Hidden Content:
    You must either reply or click 'Like' to see the hidden information contained here.
     
    Last edited: Apr 14, 2018
  2. Loading...


  3. exterminador

    exterminador Well-Known Member

    Joined:
    Jul 3, 2016
    Messages:
    2,505
    Likes Received:
    212
  4. benja

    benja Well-Known Member

    Joined:
    Jan 8, 2014
    Messages:
    1,620
    Likes Received:
    105
    Thank you
     
  5. sideshow_bob

    sideshow_bob Well-Known Member

    Joined:
    Dec 20, 2013
    Messages:
    3,255
    Likes Received:
    239
    Thank you
     
  6. nino.navy

    nino.navy Well-Known Member

    Joined:
    May 30, 2014
    Messages:
    3,220
    Likes Received:
    190
    thanks a lot
     
  7. Glauber

    Glauber Active Member

    Joined:
    Sep 22, 2014
    Messages:
    374
    Likes Received:
    27
    Thanks
     
  8. thiagodema

    thiagodema Well-Known Member

    Joined:
    Jan 19, 2014
    Messages:
    761
    Likes Received:
    416
    thanks for joob
     
  9. hungquocphan

    hungquocphan Active Member

    Joined:
    Nov 1, 2013
    Messages:
    766
    Likes Received:
    36
  10. mike gunen

    mike gunen Well-Known Member

    Joined:
    Nov 9, 2013
    Messages:
    1,043
    Likes Received:
    42
    Thank you
     
  11. jadastevens

    jadastevens Member

    Joined:
    Nov 3, 2017
    Messages:
    57
    Likes Received:
    2
    the great Xtina
     
  12. rhea

    rhea Well-Known Member

    Joined:
    Jan 6, 2014
    Messages:
    8,296
    Likes Received:
    1,185
    thanks
     
  13. apl3

    apl3 Well-Known Member

    Joined:
    Jun 11, 2017
    Messages:
    1,214
    Likes Received:
    35
    thanks
     
  14. mr.figres

    mr.figres Member

    Joined:
    Jul 8, 2016
    Messages:
    91
    Likes Received:
    7
    t
    thanks
     
  15. Amauri Luiz

    Amauri Luiz Well-Known Member

    Joined:
    Jan 14, 2014
    Messages:
    2,009
    Likes Received:
    83
    Thank you!
     
  16. ulygatore

    ulygatore Well-Known Member

    Joined:
    Jun 29, 2017
    Messages:
    1,236
    Likes Received:
    62
  17. brian182

    brian182 Well-Known Member

    Joined:
    Oct 14, 2013
    Messages:
    2,149
    Likes Received:
    123
    thanks..
     
  18. vocalranges

    vocalranges Member

    Joined:
    Nov 9, 2014
    Messages:
    283
    Likes Received:
    12
    omg thanks
     
  19. Markonfire

    Markonfire Member

    Joined:
    Sep 29, 2016
    Messages:
    213
    Likes Received:
    11
  20. lim

    lim Well-Known Member

    Joined:
    Nov 8, 2013
    Messages:
    2,110
    Likes Received:
    79
    thanks
     
  21. antinao

    antinao Active Member

    Joined:
    May 30, 2015
    Messages:
    587
    Likes Received:
    31
    i love her