Christina Aguilera - Ain't No Other Man (DD2.0 MHD 1080i)

Discussion in 'MHD' started by J_Pablo, Feb 3, 2016.

  1. J_Pablo

    J_Pablo Active Member

    Joined:
    Nov 27, 2013
    Messages:
    430
    Likes Received:
    62
    [​IMG]

    Code:
    ID  : 1 (0x1)
    Complete name  : christina_aguilera_-_ain't_no_other_man_(dd2.0-mhd-1080i) by_JP.ts
    Format  : MPEG-TS
    File size  : 541 MiB
    Duration  : 4mn 52s
    Overall bit rate mode  : Variable
    Overall bit rate  : 15.5 Mbps
    
    Video
    ID  : 2048 (0x800)
    Menu ID  : 1 (0x1)
    Format  : MPEG Video
    Format version  : Version 2
    Format profile  : [email protected]
    Format settings, BVOP  : Yes
    Format settings, Matrix  : Custom
    Format settings, GOP  : M=2, N=14
    Codec ID  : 2
    Duration  : 4mn 52s
    Bit rate mode  : Variable
    Bit rate  : 14.3 Mbps
    Maximum bit rate  : 38.8 Mbps
    Width  : 1 920 pixels
    Height  : 1 080 pixels
    Display aspect ratio  : 16:9
    Frame rate  : 29.970 fps
    Standard  : Component
    Color space  : YUV
    Chroma subsampling  : 4:2:0
    Bit depth  : 8 bits
    Compression mode  : Lossy
    Bits/(Pixel*Frame)  : 0.231
    Stream size  : 500 MiB (92%)
    Color primaries  : BT.709
    Transfer characteristics  : BT.709
    Matrix coefficients  : BT.709
    
    Audio
    ID  : 2049 (0x801)
    Menu ID  : 1 (0x1)
    Format  : AC-3
    Format/Info  : Audio Coding 3
    Mode extension  : CM (complete main)
    Format settings, Endianness  : Big
    Codec ID  : 129
    Duration  : 4mn 52s
    Bit rate mode  : Constant
    Bit rate  : 384 Kbps
    Channel(s)  : 2 channels
    Channel positions  : Front: L R
    Sampling rate  : 48.0 KHz
    Bit depth  : 16 bits
    Compression mode  : Lossy
    Stream size  : 13.4 MiB (2%)
    
    Hidden Content:
    You must reply before you can see the hidden data contained here.
     
    fstambuk likes this.
  2. nathancorsini

    nathancorsini Active Member

    Joined:
    Jan 19, 2016
    Messages:
    272
    Likes Received:
    215
    Thank you!
     
  3. sideshow_bob

    sideshow_bob Well-Known Member

    Joined:
    Dec 20, 2013
    Messages:
    2,424
    Likes Received:
    122
  4. tobiashrsted

    tobiashrsted New Member

    Joined:
    Mar 26, 2016
    Messages:
    27
    Likes Received:
    0
  5. quake2

    quake2 Active Member

    Joined:
    Oct 11, 2014
    Messages:
    821
    Likes Received:
    32
    ok thx
     
  6. horeticulture

    horeticulture New Member

    Joined:
    May 27, 2016
    Messages:
    1
    Likes Received:
    0
  7. ns210193

    ns210193 Member

    Joined:
    Jun 16, 2016
    Messages:
    70
    Likes Received:
    1
  8. Eslam Abosaed

    Eslam Abosaed Member

    Joined:
    Jan 27, 2015
    Messages:
    170
    Likes Received:
    5
    Thank you
     
  9. tobiashrsted

    tobiashrsted New Member

    Joined:
    Mar 26, 2016
    Messages:
    27
    Likes Received:
    0
    How do you download it?!!!
     
  10. tobiashrsted

    tobiashrsted New Member

    Joined:
    Mar 26, 2016
    Messages:
    27
    Likes Received:
    0
    How do you download it
     
  11. pinky

    pinky Member

    Joined:
    Jun 27, 2015
    Messages:
    829
    Likes Received:
    21
    thank you :)
     
  12. arasu123

    arasu123 Member

    Joined:
    Aug 8, 2016
    Messages:
    273
    Likes Received:
    8
    dgfdgdfgdg
     
  13. angelm

    angelm Member

    Joined:
    Aug 5, 2016
    Messages:
    169
    Likes Received:
    6
    g
    reat
     
  14. toxic144

    toxic144 Active Member

    Joined:
    Sep 16, 2016
    Messages:
    279
    Likes Received:
    172
  15. CristianMatias

    CristianMatias Member

    Joined:
    Sep 17, 2016
    Messages:
    541
    Likes Received:
    17
    Christina Aguilera
     
  16. skyisup

    skyisup Member

    Joined:
    Jul 21, 2016
    Messages:
    98
    Likes Received:
    0
    Thanks
     
  17. plwww

    plwww Member

    Joined:
    May 28, 2016
    Messages:
    330
    Likes Received:
    8
    thank you
     
  18. hanshermann

    hanshermann Active Member

    Joined:
    Aug 24, 2016
    Messages:
    1,372
    Likes Received:
    3
    wahts taht
     
  19. e132961

    e132961 Member

    Joined:
    Jan 6, 2017
    Messages:
    100
    Likes Received:
    0
    thanks
     
  20. diegov

    diegov New Member

    Joined:
    Jan 4, 2017
    Messages:
    29
    Likes Received:
    0
    thanks