Christina Aguilera - Ain't No Other Man (DD2.0 MHD 1080i)

Discussion in 'MHD' started by J_Pablo, Feb 3, 2016.

  1. J_Pablo

    J_Pablo Active Member

    Joined:
    Nov 27, 2013
    Messages:
    515
    Likes Received:
    106
    [​IMG]

    Code:
    ID  : 1 (0x1)
    Complete name  : christina_aguilera_-_ain't_no_other_man_(dd2.0-mhd-1080i) by_JP.ts
    Format  : MPEG-TS
    File size  : 541 MiB
    Duration  : 4mn 52s
    Overall bit rate mode  : Variable
    Overall bit rate  : 15.5 Mbps
    
    Video
    ID  : 2048 (0x800)
    Menu ID  : 1 (0x1)
    Format  : MPEG Video
    Format version  : Version 2
    Format profile  : [email protected]
    Format settings, BVOP  : Yes
    Format settings, Matrix  : Custom
    Format settings, GOP  : M=2, N=14
    Codec ID  : 2
    Duration  : 4mn 52s
    Bit rate mode  : Variable
    Bit rate  : 14.3 Mbps
    Maximum bit rate  : 38.8 Mbps
    Width  : 1 920 pixels
    Height  : 1 080 pixels
    Display aspect ratio  : 16:9
    Frame rate  : 29.970 fps
    Standard  : Component
    Color space  : YUV
    Chroma subsampling  : 4:2:0
    Bit depth  : 8 bits
    Compression mode  : Lossy
    Bits/(Pixel*Frame)  : 0.231
    Stream size  : 500 MiB (92%)
    Color primaries  : BT.709
    Transfer characteristics  : BT.709
    Matrix coefficients  : BT.709
    
    Audio
    ID  : 2049 (0x801)
    Menu ID  : 1 (0x1)
    Format  : AC-3
    Format/Info  : Audio Coding 3
    Mode extension  : CM (complete main)
    Format settings, Endianness  : Big
    Codec ID  : 129
    Duration  : 4mn 52s
    Bit rate mode  : Constant
    Bit rate  : 384 Kbps
    Channel(s)  : 2 channels
    Channel positions  : Front: L R
    Sampling rate  : 48.0 KHz
    Bit depth  : 16 bits
    Compression mode  : Lossy
    Stream size  : 13.4 MiB (2%)
    
    Hidden Content:
    You must reply before you can see the hidden data contained here.
     
    fstambuk likes this.
  2. nathancorsini

    nathancorsini Active Member

    Joined:
    Jan 19, 2016
    Messages:
    278
    Likes Received:
    247
    Thank you!
     
  3. sideshow_bob

    sideshow_bob Well-Known Member

    Joined:
    Dec 20, 2013
    Messages:
    2,899
    Likes Received:
    173
  4. tobiashrsted

    tobiashrsted Member

    Joined:
    Mar 26, 2016
    Messages:
    62
    Likes Received:
    13
  5. quake2

    quake2 Well-Known Member

    Joined:
    Oct 11, 2014
    Messages:
    1,036
    Likes Received:
    56
    ok thx
     
  6. horeticulture

    horeticulture New Member

    Joined:
    May 27, 2016
    Messages:
    1
    Likes Received:
    0
  7. ns210193

    ns210193 Member

    Joined:
    Jun 16, 2016
    Messages:
    78
    Likes Received:
    2
  8. Eslam Abosaed

    Eslam Abosaed Member

    Joined:
    Jan 27, 2015
    Messages:
    226
    Likes Received:
    5
    Thank you
     
  9. tobiashrsted

    tobiashrsted Member

    Joined:
    Mar 26, 2016
    Messages:
    62
    Likes Received:
    13
    How do you download it?!!!
     
  10. tobiashrsted

    tobiashrsted Member

    Joined:
    Mar 26, 2016
    Messages:
    62
    Likes Received:
    13
    How do you download it
     
  11. pinky

    pinky Well-Known Member

    Joined:
    Jun 27, 2015
    Messages:
    1,239
    Likes Received:
    48
    thank you :)
     
  12. arasu123

    arasu123 Member

    Joined:
    Aug 8, 2016
    Messages:
    440
    Likes Received:
    14
    dgfdgdfgdg
     
  13. angelm

    angelm Member

    Joined:
    Aug 5, 2016
    Messages:
    169
    Likes Received:
    6
    g
    reat
     
  14. toxic144

    toxic144 Well-Known Member Donor

    Joined:
    Sep 16, 2016
    Messages:
    368
    Likes Received:
    576
  15. CristianMatias

    CristianMatias HIGH DEFINITION

    Joined:
    Sep 17, 2016
    Messages:
    806
    Likes Received:
    21
    Christina Aguilera
     
  16. skyisup

    skyisup Member

    Joined:
    Jul 21, 2016
    Messages:
    171
    Likes Received:
    0
    Thanks
     
  17. plwww

    plwww Member

    Joined:
    May 28, 2016
    Messages:
    518
    Likes Received:
    24
    thank you
     
  18. hanshermann

    hanshermann Well-Known Member Uploader

    Joined:
    Aug 24, 2016
    Messages:
    4,637
    Likes Received:
    2,266
    wahts taht
     
  19. e132961

    e132961 Member

    Joined:
    Jan 6, 2017
    Messages:
    114
    Likes Received:
    1
    thanks
     
  20. diegov

    diegov Member

    Joined:
    Jan 4, 2017
    Messages:
    31
    Likes Received:
    0
    thanks