Christina Aguilera - Ain't No Other Man (DD2.0 MHD 1080i)

Discussion in 'MHD' started by J_Pablo, Feb 3, 2016.

  1. J_Pablo

    J_Pablo Active Member

    Joined:
    Nov 27, 2013
    Messages:
    534
    Likes Received:
    114
    [​IMG]

    Code:
    ID  : 1 (0x1)
    Complete name  : christina_aguilera_-_ain't_no_other_man_(dd2.0-mhd-1080i) by_JP.ts
    Format  : MPEG-TS
    File size  : 541 MiB
    Duration  : 4mn 52s
    Overall bit rate mode  : Variable
    Overall bit rate  : 15.5 Mbps
    
    Video
    ID  : 2048 (0x800)
    Menu ID  : 1 (0x1)
    Format  : MPEG Video
    Format version  : Version 2
    Format profile  : Main@High
    Format settings, BVOP  : Yes
    Format settings, Matrix  : Custom
    Format settings, GOP  : M=2, N=14
    Codec ID  : 2
    Duration  : 4mn 52s
    Bit rate mode  : Variable
    Bit rate  : 14.3 Mbps
    Maximum bit rate  : 38.8 Mbps
    Width  : 1 920 pixels
    Height  : 1 080 pixels
    Display aspect ratio  : 16:9
    Frame rate  : 29.970 fps
    Standard  : Component
    Color space  : YUV
    Chroma subsampling  : 4:2:0
    Bit depth  : 8 bits
    Compression mode  : Lossy
    Bits/(Pixel*Frame)  : 0.231
    Stream size  : 500 MiB (92%)
    Color primaries  : BT.709
    Transfer characteristics  : BT.709
    Matrix coefficients  : BT.709
    
    Audio
    ID  : 2049 (0x801)
    Menu ID  : 1 (0x1)
    Format  : AC-3
    Format/Info  : Audio Coding 3
    Mode extension  : CM (complete main)
    Format settings, Endianness  : Big
    Codec ID  : 129
    Duration  : 4mn 52s
    Bit rate mode  : Constant
    Bit rate  : 384 Kbps
    Channel(s)  : 2 channels
    Channel positions  : Front: L R
    Sampling rate  : 48.0 KHz
    Bit depth  : 16 bits
    Compression mode  : Lossy
    Stream size  : 13.4 MiB (2%)
    
    Hidden Content:
    You must reply before you can see the hidden data contained here.
     
    fstambuk likes this.
  2. Loading...


  3. nathancorsini

    nathancorsini Well-Known Member

    Joined:
    Jan 19, 2016
    Messages:
    285
    Likes Received:
    264
    Thank you!
     
  4. sideshow_bob

    sideshow_bob Well-Known Member

    Joined:
    Dec 20, 2013
    Messages:
    3,091
    Likes Received:
    202
  5. tobiashrsted

    tobiashrsted Member

    Joined:
    Mar 26, 2016
    Messages:
    92
    Likes Received:
    19
  6. quake2

    quake2 Well-Known Member

    Joined:
    Oct 11, 2014
    Messages:
    1,220
    Likes Received:
    84
    ok thx
     
  7. horeticulture

    horeticulture New Member

    Joined:
    May 27, 2016
    Messages:
    1
    Likes Received:
    0
  8. ns210193

    ns210193 Member

    Joined:
    Jun 16, 2016
    Messages:
    78
    Likes Received:
    2
  9. Eslam Abosaed

    Eslam Abosaed Member

    Joined:
    Jan 27, 2015
    Messages:
    300
    Likes Received:
    6
    Thank you
     
  10. tobiashrsted

    tobiashrsted Member

    Joined:
    Mar 26, 2016
    Messages:
    92
    Likes Received:
    19
    How do you download it?!!!
     
  11. tobiashrsted

    tobiashrsted Member

    Joined:
    Mar 26, 2016
    Messages:
    92
    Likes Received:
    19
    How do you download it
     
  12. pinky

    pinky Well-Known Member

    Joined:
    Jun 27, 2015
    Messages:
    1,368
    Likes Received:
    54
    thank you :)
     
  13. arasu123

    arasu123 Member

    Joined:
    Aug 8, 2016
    Messages:
    454
    Likes Received:
    15
    dgfdgdfgdg
     
  14. angelm

    angelm Member

    Joined:
    Aug 5, 2016
    Messages:
    169
    Likes Received:
    6
    g
    reat
     
  15. toxic144

    toxic144 Well-Known Member V . I . P. Donor

    Joined:
    Sep 16, 2016
    Messages:
    444
    Likes Received:
    724
  16. CristianMatias

    CristianMatias HIGH DEFINITION

    Joined:
    Sep 17, 2016
    Messages:
    904
    Likes Received:
    27
    Christina Aguilera
     
  17. skyisup

    skyisup Member

    Joined:
    Jul 21, 2016
    Messages:
    208
    Likes Received:
    0
    Thanks
     
  18. plwww

    plwww Active Member

    Joined:
    May 28, 2016
    Messages:
    591
    Likes Received:
    39
    thank you
     
  19. hanshermann

    hanshermann Well-Known Member Uploader

    Joined:
    Aug 24, 2016
    Messages:
    5,406
    Likes Received:
    5,767
    wahts taht
     
  20. e132961

    e132961 Member

    Joined:
    Jan 6, 2017
    Messages:
    114
    Likes Received:
    1
    thanks
     
  21. diegov

    diegov Member

    Joined:
    Jan 4, 2017
    Messages:
    31
    Likes Received:
    0
    thanks