DVD Chris Brown - Turn Up The Music (MixMash) [VOB]

Discussion in 'SD' started by claudio1301, Aug 4, 2020.

  1. claudio1301

    claudio1301 Well-Known Member

    Joined:
    Oct 2, 2018
    Messages:
    1,386
    Likes Received:
    2,925
    [​IMG]
    Code:
    General
    Complete name                  : Chris Brown - Turn Up The Music (MixMash).vob
    Format                         : MPEG-PS
    File size                      : 264 MiB
    Duration                       : 4 min 16 s
    Overall bit rate mode          : Variable
    Overall bit rate               : 8 627 kb/s
    
    Video
    ID                             : 224 (0xE0)
    Format                         : MPEG Video
    Format version                 : Version 2
    Format profile                 : Main@Main
    Format settings                : CustomMatrix / BVOP
    Format settings, BVOP          : Yes
    Format settings, Matrix        : Custom
    Format settings, GOP           : M=3, N=13
    Duration                       : 4 min 16 s
    Bit rate mode                  : Variable
    Bit rate                       : 6 920 kb/s
    Maximum bit rate               : 8 000 kb/s
    Width                          : 720 pixels
    Height                         : 576 pixels
    Display aspect ratio           : 16:9
    Frame rate                     : 25.000 FPS
    Standard                       : PAL
    Color space                    : YUV
    Chroma subsampling             : 4:2:0
    Bit depth                      : 8 bits
    Scan type                      : Progressive
    Compression mode               : Lossy
    Bits/(Pixel*Frame)             : 0.667
    Time code of first frame       : 00:00:00:00
    Time code source               : Group of pictures header
    GOP, Open/Closed               : Closed
    Stream size                    : 212 MiB (80%)
    Color primaries                : BT.601 PAL
    Transfer characteristics       : BT.470 System B/G
    Matrix coefficients            : BT.470 System B/G
    
    Audio
    ID                             : 189 (0xBD)-160 (0xA0)
    Format                         : PCM
    Format settings                : Big / Signed
    Muxing mode                    : DVD-Video
    Duration                       : 4 min 16 s
    Bit rate mode                  : Constant
    Bit rate                       : 1 536 kb/s
    Channel(s)                     : 2 channels
    Sampling rate                  : 48.0 kHz
    Bit depth                      : 16 bits
    Stream size                    : 47.0 MiB (18%)
    Host: Mediafire
    Hidden Content:
    You must reply before you can see the hidden data contained here.
     
    eks22 likes this.
  2. Loading...


  3. Lordbr666

    Lordbr666 Well-Known Member

    Joined:
    May 24, 2020
    Messages:
    2,131
    Likes Received:
    174
    Thank You!