DVD Cheryl - Call My Name (MixMash) [VOB]

Discussion in 'SD' started by claudio1301, Apr 3, 2020.

  1. claudio1301

    claudio1301 Well-Known Member

    Joined:
    Oct 2, 2018
    Messages:
    1,064
    Likes Received:
    2,049
    [​IMG]
    Code:
    General
    Complete name                  : Cheryl - Call My Name (MixMash).vob
    Format                         : MPEG-PS
    File size                      : 274 MiB
    Duration                       : 4 min 17 s
    Overall bit rate mode          : Variable
    Overall bit rate               : 8 902 kb/s
    
    Video
    ID                             : 224 (0xE0)
    Format                         : MPEG Video
    Format version                 : Version 2
    Format profile                 : Main@Main
    Format settings                : CustomMatrix / BVOP
    Format settings, BVOP          : Yes
    Format settings, Matrix        : Custom
    Format settings, GOP           : M=3, N=13
    Format settings, picture struc : Frame
    Duration                       : 4 min 17 s
    Bit rate mode                  : Variable
    Bit rate                       : 7 189 kb/s
    Maximum bit rate               : 8 000 kb/s
    Width                          : 720 pixels
    Height                         : 576 pixels
    Display aspect ratio           : 16:9
    Frame rate                     : 25.000 FPS
    Standard                       : PAL
    Color space                    : YUV
    Chroma subsampling             : 4:2:0
    Bit depth                      : 8 bits
    Scan type                      : Interlaced
    Scan order                     : Top Field First
    Compression mode               : Lossy
    Bits/(Pixel*Frame)             : 0.693
    Time code of first frame       : 00:00:00:00
    Time code source               : Group of pictures header
    GOP, Open/Closed               : Closed
    Stream size                    : 221 MiB (81%)
    Color primaries                : BT.601 PAL
    Transfer characteristics       : BT.470 System B/G
    Matrix coefficients            : BT.470 System B/G
    
    Audio
    ID                             : 189 (0xBD)-160 (0xA0)
    Format                         : PCM
    Format settings                : Big / Signed
    Muxing mode                    : DVD-Video
    Duration                       : 4 min 17 s
    Bit rate mode                  : Constant
    Bit rate                       : 1 536 kb/s
    Channel(s)                     : 2 channels
    Sampling rate                  : 48.0 kHz
    Bit depth                      : 16 bits
    Delay relative to video        : 2 ms
    Stream size                    : 47.2 MiB (17%)
    Host: Mediafire
    Hidden Content:
    You must either reply or click 'Like' to see the hidden information contained here.
     
    Last edited: Apr 18, 2020
    3veronicas, zuluka and 12wurzel like this.
  2. Loading...


  3. sebamax

    sebamax Active Member

    Joined:
    Aug 28, 2016
    Messages:
    1,547
    Likes Received:
    19
    Thanks.
     
  4. jojo335

    jojo335 Well-Known Member

    Joined:
    Jan 18, 2017
    Messages:
    1,024
    Likes Received:
    38
    thanks