HDTV Cher - The Greatest Showgirl (Channel 5 HD - 16Aug2019)-dylwys

Discussion in 'Documentaries' started by CELOBRAZiL, Aug 23, 2019.

  1. CELOBRAZiL

    CELOBRAZiL Well-Known Member Capper V . I . P. Donor

    Joined:
    Oct 2, 2013
    Messages:
    7,765
    Likes Received:
    26,823
    Cher - The Greatest Showgirl (Channel 5 HD - 16Aug2019)-dylwys

    [​IMG]



    Format : MPEG-TS
    File size : 6.17 GiB
    Duration : 1 h 33 min
    Overall bit rate mode : Variable
    Overall bit rate : 9 415 kb/s

    Video
    ID : 2305 (0x901)
    Menu ID : 7750 (0x1E46)
    Format : AVC
    Format/Info : Advanced Video Codec
    Format profile : Main@L4
    Format settings : CABAC / 4 Ref Frames
    Format settings, CABAC : Yes
    Format settings, RefFrames : 4 frames
    Codec ID : 27
    Duration : 1 h 33 min
    Bit rate : 8 400 kb/s
    Width : 1 920 pixels
    Height : 1 080 pixels
    Display aspect ratio : 16:9
    Frame rate : 25.000 FPS
    Standard : Component
    Color space : YUV
    Chroma subsampling : 4:2:0
    Bit depth : 8 bits
    Scan type : Interlaced
    Scan type, store method : Separated fields
    Scan order : Top Field First
    Bits/(Pixel*Frame) : 0.162
    Stream size : 5.51 GiB (89%)
    Color range : Limited
    Color primaries : BT.709
    Transfer characteristics : BT.709
    Matrix coefficients : BT.709

    Audio #1
    ID : 2306 (0x902)
    Menu ID : 7750 (0x1E46)
    Format : AC-3
    Format/Info : Audio Coding 3
    Commercial name : Dolby Digital
    Codec ID : 6
    Duration : 1 h 33 min
    Bit rate mode : Constant
    Bit rate : 384 kb/s
    Channel(s) : 6 channels
    Channel layout : L R C LFE Ls Rs
    Sampling rate : 48.0 kHz
    Frame rate : 31.250 FPS (1536 SPF)
    Bit depth : 16 bits
    Compression mode : Lossy
    Stream size : 258 MiB (4%)
    Language : English
    Service kind : Complete Main

    Audio #2
    ID : 2307 (0x903)
    Menu ID : 7750 (0x1E46)
    Format : MPEG Audio
    Format version : Version 1
    Format profile : Layer 2
    Codec ID : 3
    Duration : 1 h 33 min
    Bit rate mode : Constant
    Bit rate : 160 kb/s
    Channel(s) : 2 channels
    Sampling rate : 48.0 kHz
    Frame rate : 41.667 FPS (1152 SPF)
    Compression mode : Lossy
    Stream size : 107 MiB (2%)
    Language : nar

    Text #1
    ID : 2308 (0x904)-888
    Menu ID : 7750 (0x1E46)
    Format : Teletext Subtitle
    Language : English

    Text #2
    ID : 2309 (0x905)
    Menu ID : 7750 (0x1E46)
    Format : DVB Subtitle
    Codec ID : 6
    Duration : 1 h 33 min
    Delay relative to video : 19 s 40 ms
    Language : English



    Link(s):
    Hidden Content:
    You must either reply or click 'Like' to see the hidden information contained here.
     
    caveman, mpluk, Garry1287 and 5 others like this.
  2. Loading...


  3. CELOBRAZiL

    CELOBRAZiL Well-Known Member Capper V . I . P. Donor

    Joined:
    Oct 2, 2013
    Messages:
    7,765
    Likes Received:
    26,823
    :love::love::love:

    Added GOOGLE DRIVE link! :)
     
    eks22 likes this.
  4. rhea

    rhea Well-Known Member

    Joined:
    Jan 6, 2014
    Messages:
    9,799
    Likes Received:
    1,747
    thank you so much!
     
    CELOBRAZiL likes this.
  5. SmartBeens

    SmartBeens Well-Known Member

    Joined:
    Oct 5, 2014
    Messages:
    1,117
    Likes Received:
    132
    Very Nice.....Thanks
     
    CELOBRAZiL likes this.
  6. multimediafm

    multimediafm Well-Known Member Donor

    Joined:
    Mar 27, 2014
    Messages:
    15,416
    Likes Received:
    1,401
    Thanks:cool:
     
    CELOBRAZiL likes this.
  7. 1stb2s

    1stb2s Member

    Joined:
    Aug 24, 2019
    Messages:
    210
    Likes Received:
    5
    Thanks for sharing with Google Drive !!! :love:
     
    CELOBRAZiL likes this.
  8. jasonvol

    jasonvol Active Member

    Joined:
    Jan 27, 2016
    Messages:
    649
    Likes Received:
    26
    thank you
     
  9. hawkstarsky

    hawkstarsky Member

    Joined:
    Mar 20, 2019
    Messages:
    93
    Likes Received:
    1
  10. Jenkins

    Jenkins Well-Known Member

    Joined:
    May 30, 2019
    Messages:
    5,939
    Likes Received:
    111
    THANKS
     
  11. yannick1980

    yannick1980 Member

    Joined:
    Apr 29, 2018
    Messages:
    281
    Likes Received:
    18
    thank you!
     
  12. new728

    new728 Active Member

    Joined:
    Mar 24, 2019
    Messages:
    558
    Likes Received:
    26
    THANK YOU!
     
  13. Wagnerr

    Wagnerr Active Member

    Joined:
    Sep 21, 2014
    Messages:
    490
    Likes Received:
    29
    thanks
     
  14. Rodrigo Izetti

    Rodrigo Izetti Active Member

    Joined:
    Sep 22, 2014
    Messages:
    934
    Likes Received:
    54