CC Charlie Robison - El Cerrito Place (MHD 1080i).ts

Discussion in 'MHD' started by CristianMatias, Nov 8, 2018.

  1. CristianMatias

    CristianMatias Next Generations

    Joined:
    Sep 17, 2016
    Messages:
    1,364
    Likes Received:
    138
    [​IMG]

    [​IMG]

    Code:
    
    H:\MUSIC\NHAC QUOC TE\VIDEO\VIDEOS US-UK (SD&HD)\Charlie Robison - El Cerrito Place.mkv
      General
        Unique ID : 187042821589947470886565840340371920093 (0x8CB72318DF636B329D83DF96504C54DD)
        Complete name : H:\MUSIC\NHAC QUOC TE\VIDEO\VIDEOS US-UK (SD&HD)\Charlie Robison - El Cerrito Place.mkv
        Format : Matroska
        Format version : Version 2
        File size : 603 MiB                                                           
        Duration : 4mn 40s
        Overall bit rate : 6 518 Kbps
        Encoded date : UTC 2009-12-11 08:33:46
        Writing application : mkvmerge v2.9.7 ('Tenderness') built on Jul  1 2009 18:43:35
        Writing library : libebml v0.7.7 + libmatroska v0.8.1
      Video #1
        ID : 1
        Format : AVC
        Format/Info : Advanced Video Codec
        Format profile : High@L4.1
        Format settings, CABAC : Yes
        Format settings, ReFrames : 4 frames
        Codec ID : V_MPEG4/ISO/AVC
        Duration : 3mn 53s
        Bit rate : 6 144 Kbps
        Width : 1 920 pixels
        Height : 1 080 pixels
        Display aspect ratio : 16:9
        Frame rate mode : Constant
        Frame rate : 29.970 fps
        Color space : YUV
        Chroma subsampling : 4:2:0
        Bit depth : 8 bits
        Scan type : Progressive
        Bits/(Pixel*Frame) : 0.099
        Stream size : 167 MiB (92%)
        Writing library : x264 core 68 r1183M f21daff
        Encoding settings : cabac=1 / ref=4 / deblock=1:-1:-1 / analyse=0x3:0x113 / me=umh / subme=7 / psy_rd=1.0:0.0 / mixed_ref=1 / me_range=16 / chroma_me=1 / trellis=2 / 8x8dct=1 / cqm=0 / deadzone=21,11 / chroma_qp_offset=-2 / threads=3 / nr=0 / decimate=1 / mbaff=0 / bframes=3 / b_pyramid=0 / b_adapt=2 / b_bias=0 / direct=3 / wpredb=1 / keyint=300 / keyint_min=25 / scenecut=40 / rc=2pass / bitrate=6144 / ratetol=1.0 / qcomp=0.60 / qpmin=10 / qpmax=51 / qpstep=4 / cplxblur=20.0 / qblur=0.5 / vbv_maxrate=50000 / vbv_bufsize=50000 / ip_ratio=1.40 / pb_ratio=1.30 / aq=1:1.00
        Language : English
        Default : Yes
        Forced : No
      Audio #2
        ID : 2
        Format : AC-3
        Format/Info : Audio Coding 3
        Mode extension : CM (complete main)
        Format settings, Endianness : Big
        Codec ID : A_AC3
        Duration : 3mn 53s
        Bit rate mode : Constant
        Bit rate : 384 Kbps
        Channel(s) : 6 channels
        Channel positions : Front: L C R, Side: L R, LFE
        Sampling rate : 48.0 KHz
        Bit depth : 16 bits
        Compression mode : Lossy
        Stream size : 10.7 MiB (6%)
        Default : Yes
        Forced : No
    
        
    
    
    
    
    Hidden Content:
    You must either reply or click 'Like' to see the hidden information contained here.
     
  2. CristianMatias

    CristianMatias Next Generations

    Joined:
    Sep 17, 2016
    Messages:
    1,364
    Likes Received:
    138
    los enlaces están Semi OCULTO en la Carpeta Spoiler si Bajas lo Veras