Charlie Puth ft. Selena Gomez - We Don't Talk Anymore [REVIVAL Tour](1080p-Master)

Discussion in 'MASTER & MASTER RIP' started by Sh4pphire, Aug 20, 2016.

  1. Sh4pphire

    Sh4pphire Well-Known Member

    Joined:
    Oct 24, 2015
    Messages:
    57
    Likes Received:
    829
    [​IMG]
    [​IMG]
    [​IMG]
    [​IMG]
    General
    Complete name : Charlie Puth & Selena Gomez - We Don't Talk Anymore (REVIVAL Tour)[1080p-Master].mp4
    Format : MPEG-4
    Format profile : Base Media / Version 2
    Codec ID : mp42
    File size : 348 MiB
    Duration : 3mn 3s
    Overall bit rate mode : Variable
    Overall bit rate : 15.9 Mbps
    Encoded date : UTC 2016-07-17 20:39:51
    Tagged date : UTC 2016-07-17 20:39:59
    ©TIM : 00:00:11:01
    ©TSC : 24000
    ©TSZ : 1001

    Video
    ID : 1
    Format : AVC
    Format/Info : Advanced Video Codec
    Format profile : [email protected]
    Format settings, CABAC : Yes
    Format settings, ReFrames : 3 frames
    Codec ID : avc1
    Codec ID/Info : Advanced Video Coding
    Duration : 3mn 3s
    Bit rate mode : Variable
    Bit rate : 15.5 Mbps
    Maximum bit rate : 16.0 Mbps
    Width : 1 920 pixels
    Height : 1 080 pixels
    Display aspect ratio : 16:9
    Frame rate mode : Constant
    Frame rate : 23.976 fps
    Standard : NTSC
    Color space : YUV
    Chroma subsampling : 4:2:0
    Bit depth : 8 bits
    Scan type : Progressive
    Bits/(Pixel*Frame) : 0.313
    Stream size : 341 MiB (98%)
    Language : English
    Encoded date : UTC 2016-07-17 20:39:51
    Tagged date : UTC 2016-07-17 20:39:51
    Color range : Limited
    Color primaries : BT.709
    Transfer characteristics : BT.709
    Matrix coefficients : BT.709

    Audio
    ID : 2
    Format : AAC
    Format/Info : Advanced Audio Codec
    Format profile : LC
    Codec ID : 40
    Duration : 3mn 3s
    Source duration : 3mn 4s
    Bit rate mode : Variable
    Bit rate : 317 Kbps
    Maximum bit rate : 446 Kbps
    Channel(s) : 2 channels
    Channel positions : Front: L R
    Sampling rate : 48.0 KHz
    Compression mode : Lossy
    Stream size : 6.96 MiB (2%)
    Source stream size : 6.96 MiB (2%)
    Language : English
    Encoded date : UTC 2016-07-17 20:39:51
    Tagged date : UTC 2016-07-17 20:39:51
    Hidden Content:
    You must either reply or click 'Like' to see the hidden information contained here.
     
  2. Loading...


  3. Ray031

    Ray031 Member

    Joined:
    Jul 11, 2015
    Messages:
    302
    Likes Received:
    6
    Thank You
     
    BadGuy likes this.
  4. Crusha

    Crusha Well-Known Member Capper

    Joined:
    Oct 15, 2014
    Messages:
    2,350
    Likes Received:
    2,170
    Gracias
     
  5. Hyrus

    Hyrus Arianator / Selenator / Victorian / LBS* Donor

    Joined:
    Feb 9, 2015
    Messages:
    1,103
    Likes Received:
    620
    Thanks a lot for the sweet Selena :):love:
     
  6. BetaKsi

    BetaKsi Well-Known Member

    Joined:
    Oct 18, 2015
    Messages:
    764
    Likes Received:
    306
    Thank you))
     
  7. nolynexor88

    nolynexor88 Active Member

    Joined:
    Sep 29, 2015
    Messages:
    868
    Likes Received:
    28
    thank you
     
  8. kalo

    kalo Member

    Joined:
    May 25, 2015
    Messages:
    312
    Likes Received:
    8
    thanks
     
  9. Dreamer

    Dreamer Well-Known Member Capper Uploader

    Joined:
    Dec 4, 2014
    Messages:
    2,289
    Likes Received:
    2,110
    Thank you so much!
     
  10. Anderson

    Anderson New Member

    Joined:
    Nov 29, 2013
    Messages:
    22
    Likes Received:
    1
    Thank you
     
  11. multimediafm

    multimediafm Well-Known Member Donor

    Joined:
    Mar 27, 2014
    Messages:
    8,484
    Likes Received:
    352
    Thanks :)
    Charlie Puth ft. Selena Gomez - We Don't Talk Anymore [REVIVAL Tour](1080p-Master)
     
  12. nils59

    nils59 Member

    Joined:
    Oct 18, 2015
    Messages:
    49
    Likes Received:
    7
    cool merci pour le pârtage
     
  13. vietcuonghn97

    vietcuonghn97 Member

    Joined:
    Jan 7, 2016
    Messages:
    38
    Likes Received:
    1
    Thank you!!!!
     
  14. joelh20101

    joelh20101 Well-Known Member

    Joined:
    Nov 4, 2013
    Messages:
    1,459
    Likes Received:
    136
    thanks for this
     
  15. Bookerstp

    Bookerstp Member

    Joined:
    Feb 25, 2016
    Messages:
    113
    Likes Received:
    0
    Thanks
     
  16. supakiret

    supakiret Member

    Joined:
    Sep 9, 2016
    Messages:
    50
    Likes Received:
    1
    Thank You
     
  17. islamgirrard

    islamgirrard Member

    Joined:
    Oct 30, 2013
    Messages:
    92
    Likes Received:
    2
    Charlie Puth & Selena Gomez
     
  18. islamgirrard

    islamgirrard Member

    Joined:
    Oct 30, 2013
    Messages:
    92
    Likes Received:
    2
    thank you
     
  19. feet65

    feet65 Well-Known Member

    Joined:
    Nov 12, 2013
    Messages:
    1,113
    Likes Received:
    55
    very good
     
  20. edgar

    edgar Well-Known Member

    Joined:
    Oct 12, 2013
    Messages:
    1,471
    Likes Received:
    1,359
    Thanks a lot for the sweet Selena :love::love::love::love:
     
  21. demon soul

    demon soul Member

    Joined:
    Sep 13, 2016
    Messages:
    67
    Likes Received:
    0