Charli XCX - Lincoln Hall, Chicago, IL Yahoo Live Nation 10-13-14 720p WEB-RIP

Discussion in 'SD Live Performances' started by Darkangel, Oct 14, 2014.

  1. Darkangel

    Darkangel Taylor Fan Staff Member Super Moderator Capper V . I . P. Donor

    Joined:
    Oct 7, 2013
    Messages:
    2,301
    Likes Received:
    19,072
    [​IMG]
    Code:
    Complete name  : Charli XCX - Lincoln Hall, Chicago, IL Yahoo Live Nation 10-13-14 720p WEB-RIP.ts
    Format  : MPEG-TS
    File size  : 2.90 GiB
    Duration  : 1h 5mn
    Overall bit rate mode  : Variable
    Overall bit rate  : 6 378 Kbps
    
    Video
    ID  : 256 (0x100)
    Menu ID  : 1 (0x1)
    Format  : AVC
    Format/Info  : Advanced Video Codec
    Format profile  : [email protected]
    Format settings, CABAC  : Yes
    Format settings, ReFrames  : 2 frames
    Codec ID  : 27
    Duration  : 1h 5mn
    Bit rate mode  : Variable
    Bit rate  : 5 933 Kbps
    Maximum bit rate  : 6 000 Kbps
    Width  : 1 280 pixels
    Height  : 720 pixels
    Display aspect ratio  : 16:9
    Frame rate  : 30.000 fps
    Color space  : YUV
    Chroma subsampling  : 4:2:0
    Bit depth  : 8 bits
    Scan type  : Progressive
    Bits/(Pixel*Frame)  : 0.215
    Stream size  : 2.70 GiB (93%)
    
    Audio
    ID  : 257 (0x101)
    Menu ID  : 1 (0x1)
    Format  : AAC
    Format/Info  : Advanced Audio Codec
    Format version  : Version 4
    Format profile  : LC
    Muxing mode  : ADTS
    Codec ID  : 15
    Duration  : 1h 5mn
    Bit rate mode  : Variable
    Bit rate  : 128 Kbps
    Channel(s)  : 2 channels
    Channel positions  : Front: L R
    Sampling rate  : 44.1 KHz
    Compression mode  : Lossy
    Stream size  : 59.5 MiB (2%)
    Hidden Content:
    You must either reply or click 'Like' to see the hidden information contained here.
    Ripped by me
     
  2. Loading...


  3. robenn

    robenn Active Member

    Joined:
    May 29, 2014
    Messages:
    474
    Likes Received:
    46
    Thank you so much!
     
  4. P1956

    P1956 Active Member

    Joined:
    Aug 18, 2014
    Messages:
    362
    Likes Received:
    37
    thanks
     
  5. iametor

    iametor New Member

    Joined:
    Oct 15, 2014
    Messages:
    20
    Likes Received:
    0
    Yes, Thank you!!! I was at the show - amazing! Thanks for posting!!!
     
  6. Maura

    Maura Well-Known Member

    Joined:
    Apr 7, 2014
    Messages:
    2,061
    Likes Received:
    58
    thanks
     
  7. shlanderous

    shlanderous shlanderous V . I . P. Donor

    Joined:
    Oct 20, 2013
    Messages:
    2,276
    Likes Received:
    22,359
    Thanks!!
     
  8. curg

    curg Active Member

    Joined:
    Dec 6, 2013
    Messages:
    666
    Likes Received:
    30
    thanks
     
  9. fame0815

    fame0815 New Member

    Joined:
    Nov 9, 2014
    Messages:
    24
    Likes Received:
    2
    [​IMG] ¡noʎ ʞuɐɥʇ_____________________|[​IMG] [​IMG]
     
  10. spbb123

    spbb123 Member

    Joined:
    Jun 4, 2014
    Messages:
    70
    Likes Received:
    3
    thanks
     
  11. franklele

    franklele Well-Known Member

    Joined:
    Nov 11, 2013
    Messages:
    1,924
    Likes Received:
    92
    thank you
     
  12. rollergirl1606

    rollergirl1606 Member

    Joined:
    Oct 31, 2014
    Messages:
    543
    Likes Received:
    9
  13. nn_rod

    nn_rod Member

    Joined:
    Aug 1, 2014
    Messages:
    576
    Likes Received:
    7
    thank u so much
     
  14. detroit1

    detroit1 Well-Known Member

    Joined:
    Jan 6, 2014
    Messages:
    2,141
    Likes Received:
    224
    thank you
     
  15. withcap

    withcap Well-Known Member

    Joined:
    Oct 29, 2013
    Messages:
    1,520
    Likes Received:
    84
    Thank you!
     
  16. alterion

    alterion Member

    Joined:
    May 7, 2016
    Messages:
    411
    Likes Received:
    17
  17. ImLoser

    ImLoser Active Member

    Joined:
    May 12, 2016
    Messages:
    914
    Likes Received:
    41
    thanks
     
  18. fisherTW

    fisherTW Well-Known Member

    Joined:
    Dec 3, 2014
    Messages:
    1,518
    Likes Received:
    174
    Thank you.:)
     
  19. Kirsche

    Kirsche Member

    Joined:
    Jul 2, 2016
    Messages:
    235
    Likes Received:
    5
    Thanks for this =)1h ^^
     
  20. papra

    papra Member

    Joined:
    Jan 11, 2017
    Messages:
    112
    Likes Received:
    12
    Thank you